Подождите, идет загрузка сайта ...
2
Я не киллер / Hit Man- Год выпуска: 2023
Страна: США
Жанр: Боевик, мелодрама, комедия, криминал
Продолжительность: 01:54:54
Перевод: Дублированный | Мосфильм-Мастер
Субтитры: Русские (Forced, хардсаб)
Режиссёр: Ричард Линклейтер
В ролях: Глен Пауэлл, Адриа Архона, Ретта, Остин Амелио, Молли Бернард, Майк Маркофф, Бет Бартли, Рокси Ривера, Джулия Холт, Ивэн Холцман-Качество: WEB-DL 1080p
Формат: MKV
Видео кодек: AVC
Аудио кодек: AC3, E-AC3
Видео: MPEG-4 AVC, 1920x804, 4892 Kbit/s, 24.000 fps
Аудио #01: 48 kHz, AC3, 5.1, 384 Kbps | Дублированный | Мосфильм-Мастер | RUS
Аудио #02: 48 kHz, E-AC3, 5.1, 384 Kbps | Дублированный | Мосфильм-Мастер | RUS-Описание: Гэри Джонсон выдает себя за наемного убийцу, чтобы поймать настоящих преступников. Все шло по плану, пока в этой истории не появилась женщина.
General
Unique ID : 45192972497929804994604101295308531737 (0x21FFD9931C09B5969ED28D3B34FFE819)
Complete name : E:WorkEHit.Man.2023.WEB-DL.1080p.seleZen.mkv
Format : Matroska
Format version : Version 4
File size : 4.55 GiB
Duration : 1 h 54 min
Overall bit rate : 5 663 kb/s
Frame rate : 24.000 FPS
Movie name : Hit Man 2023 from seleZen
Encoded date : 2024-06-01 21:32:48 UTC
Writing application : mkvmerge v84.0 ('Sleeper') 64-bit
Writing library : libebml v1.4.5 + libmatroska v1.7.1
Video
ID : 1
Format : AVC
Format/Info : Advanced Video Codec
Format profile : High@L4
Format settings : CABAC / 3 Ref Frames
Format settings, CABAC : Yes
Format settings, Reference : 3 frames
Codec ID : V_MPEG4/ISO/AVC
Duration : 1 h 54 min
Bit rate : 4 892 kb/s
Width : 1 920 pixels
Height : 804 pixels
Display aspect ratio : 2.39:1
Frame rate mode : Constant
Frame rate : 24.000 FPS
Color space : YUV
Chroma subsampling : 4:2:0
Bit depth : 8 bits
Scan type : Progressive
Bits/(Pixel*Frame) : 0.132
Stream size : 3.93 GiB (86%)
Language : English
Default : Yes
Forced : No
Color range : Limited
Color primaries : BT.709
Transfer characteristics : BT.709
Matrix coefficients : BT.709
Audio #1
ID : 2
Format : AC-3
Format/Info : Audio Coding 3
Commercial name : Dolby Digital
Codec ID : A_AC3
Duration : 1 h 54 min
Bit rate mode : Constant
Bit rate : 384 kb/s
Channel(s) : 6 channels
Channel layout : L R C LFE Ls Rs
Sampling rate : 48.0 kHz
Frame rate : 31.250 FPS (1536 SPF)
Compression mode : Lossy
Stream size : 316 MiB (7%)
Title : Dub
Language : Russian
Service kind : Complete Main
Default : Yes
Forced : No
AC3_metadata cmixlev : -3.0 dB
surmixlev : -6 dB
Audio #2
ID : 3
Format : E-AC-3
Format/Info : Enhanced AC-3
Commercial name : Dolby Digital Plus
Codec ID : A_EAC3
Duration : 1 h 54 min
Bit rate mode : Constant
Bit rate : 384 kb/s
Channel(s) : 6 channels
Channel layout : L R C LFE Ls Rs
Sampling rate : 48.0 kHz
Frame rate : 31.250 FPS (1536 SPF)
Bit depth : 32 bits
Compression mode : Lossy
Stream size : 316 MiB (7%)
Title : Dub
Language : Russian
Service kind : Complete Main
Default : No
Forced : No

Показать сообщения

Вы не можете начинать темы
Вы не можете отвечать на сообщения
Вы не можете редактировать свои сообщения
Вы не можете удалять свои сообщения
Вы не можете голосовать в опросах
Вы не можете прикреплять файлы к сообщениям
Вы не можете скачивать файлы

Текущее время: 15-Июл 04:34

Часовой пояс: UTC ± 0

Пользовательское соглашение Для правообладателей Реклама на сайте Top.Mail.Ru