Подождите, идет загрузка сайта ...
2
Вы меня видели?- Год выпуска: 2024
Страна: Россия
Студия: Студия +1
Жанр: Драма, мелодрама
Продолжительность: 01:19:36
Перевод: Не требуется (Русский)
Субтитры: Отсутствуют
Режиссер: Екатерина Волкова
В ролях: Светлана Иванова, Никита Ефремов, Виктория Луканова, Елизавета Писаренко, Маргарита Силаева, Юрий Лопарёв, Олег Савостюк, Анфиса Решитько, Александр Доронин, Вадим Першин-Качество: WEB-DL 1080p
Формат: MKV
Видео кодек: AVC
Аудио кодек: AC3, E-AC3
Видео: MPEG-4 AVC, 5000 Кбит/с, 1920x960, 24.000 FPS
Аудио 1: AC3, 6 ch, 384 Кбит/с, 48.0 kHz
Русский

Аудио 2: E-AC3, 6 ch, 384 Кбит/с, 48.0 kHz
Русский
-Описание: Вера обманом везет семью из Перми в Архангельскую область в призрачной надежде найти свою младшую дочь, которая бесследно пропала полтора года назад. Она не подозревает, что этот обман может привести к еще большей трагедии.
Общее
Уникальный идентификатор                 : 159599443857867381015888881248745009782 (0x7811BC1C12614A642CC11D2C14EFB276)
Полное имя                               : D:\РАЗДАЧИ\Vy.menia.videli.2024.WEB-DL.1080p.ExKinoRay.mkv
Формат                                   : Matroska
Версия формата                           : Version 4
Размер файла                             : 3,17 Гбайт
Продолжительность                        : 1 ч. 19 мин.
Общий битрейт                            : 5 705 Кбит/сек
Частота кадров                           : 24,000 кадра/сек
Дата кодирования                         : 2024-06-21 09:56:57 UTC
Программа кодирования                    : mkvmerge v56.1.0 ('My Friend') 64-bit
Библиотека кодирования                   : libebml v1.4.2 + libmatroska v1.6.4
Видео
Идентификатор                            : 1
Формат                                   : AVC
Формат/Информация                        : Advanced Video Codec
Профиль формата                          : High@L4
Настройки формата                        : CABAC / 3 Ref Frames
Параметр CABAC формата                   : Да
Параметр RefFrames формата               : 3 кадра
Идентификатор кодека                     : V_MPEG4/ISO/AVC
Продолжительность                        : 1 ч. 19 мин.
Битрейт                                  : 5 000 Кбит/сек
Ширина                                   : 1 920 пикселей
Высота                                   : 960 пикселей
Соотношение сторон дисплея               : 2,000
Режим частоты кадров                     : Постоянный
Частота кадров                           : 24,000 кадра/сек
Цветовое пространство                    : YUV
Цветовая субдискретизация                : 4:2:0
Битовая глубина                          : 8 бит
Тип развёртки                            : Прогрессивная
Бит/(Пиксели*Кадры)                      : 0.113
Размер потока                            : 2,74 Гбайт (86%)
Библиотека кодирования                   : x264 core 164 r3095 baee400
Параметры библиотеки кодирования         : cabac=1 / ref=4 / deblock=1:-1:-1 / analyse=0x3:0x133 / me=umh / subme=9 / psy=1 / psy_rd=0.40:1.00 / mixed_ref=1 / me_range=24 / chroma_me=1 / trellis=0 / 8x8dct=1 / cqm=0 / deadzone=21,11 / fast_pskip=1 / chroma_qp_offset=-2 / threads=3 / lookahead_threads=1 / sliced_threads=0 / nr=0 / decimate=1 / interlaced=0 / bluray_compat=0 / stitchable=1 / constrained_intra=0 / bframes=8 / b_pyramid=1 / b_adapt=0 / b_bias=0 / direct=3 / weightb=1 / open_gop=0 / weightp=2 / keyint=72 / keyint_min=37 / scenecut=0 / intra_refresh=0 / rc_lookahead=40 / rc=2pass / mbtree=1 / bitrate=5000 / ratetol=1.0 / qcomp=0.80 / qpmin=1 / qpmax=69 / qpstep=4 / cplxblur=20.0 / qblur=0.5 / vbv_maxrate=7500 / vbv_bufsize=10000 / nal_hrd=none / filler=0 / ip_ratio=1.40 / aq=1:1.00
Язык                                     : Русский
По умолчанию                             : Да
Принудительно                            : Нет
Цветовой диапазон                        : Limited
Основные цвета                           : BT.709
Характеристики трансфера                 : BT.709
Коэффициенты матрицы                     : BT.709
Аудио #1
Идентификатор                            : 2
Формат                                   : AC-3
Формат/Информация                        : Audio Coding 3
Коммерческое название                    : Dolby Digital
Идентификатор кодека                     : A_AC3
Продолжительность                        : 1 ч. 19 мин.
Вид битрейта                             : Постоянный
Битрейт                                  : 384 Кбит/сек
Канал(-ы)                                : 6 каналов
Расположение каналов                     : L R C LFE Ls Rs
Частота дискретизации                    : 48,0 КГц
Частота кадров                           : 31,250 кадров/сек (1536 SPF)
Метод сжатия                             : С потерями
Размер потока                            : 219 Мбайт (7%)
Язык                                     : Русский
Вид сервиса                              : Complete Main
По умолчанию                             : Да
Принудительно                            : Нет
Нормализация звука речи                  : -31 dB
cmixlev                                  : -3.0 dB
surmixlev                                : -6 dB
dialnorm_Average                         : -31 dB
dialnorm_Minimum                         : -31 dB
dialnorm_Maximum                         : -31 dB
Аудио #2
Идентификатор                            : 3
Формат                                   : E-AC-3
Формат/Информация                        : Enhanced AC-3
Коммерческое название                    : Dolby Digital Plus
Идентификатор кодека                     : A_EAC3
Продолжительность                        : 1 ч. 19 мин.
Вид битрейта                             : Постоянный
Битрейт                                  : 384 Кбит/сек
Канал(-ы)                                : 6 каналов
Расположение каналов                     : L R C LFE Ls Rs
Частота дискретизации                    : 48,0 КГц
Частота кадров                           : 31,250 кадров/сек (1536 SPF)
Метод сжатия                             : С потерями
Размер потока                            : 219 Мбайт (7%)
Язык                                     : Русский
Вид сервиса                              : Complete Main
По умолчанию                             : Нет
Принудительно                            : Нет
Нормализация звука речи                  : -24 dB
compr                                    : -0.28 dB
dmixmod                                  : Lo/Ro
ltrtcmixlev                              : -3.0 dB
ltrtsurmixlev                            : -3.0 dB
lorocmixlev                              : -3.0 dB
lorosurmixlev                            : -3.0 dB
dialnorm_Average                         : -24 dB
dialnorm_Minimum                         : -24 dB
dialnorm_Maximum                         : -24 dB

Показать сообщения

Вы не можете начинать темы
Вы не можете отвечать на сообщения
Вы не можете редактировать свои сообщения
Вы не можете удалять свои сообщения
Вы не можете голосовать в опросах
Вы не можете прикреплять файлы к сообщениям
Вы не можете скачивать файлы

Текущее время: 15-Июл 04:20

Часовой пояс: UTC ± 0

Пользовательское соглашение Для правообладателей Реклама на сайте Top.Mail.Ru