Подождите, идет загрузка сайта ...
65
Информация о фильме
Название: Заложники
Оригинальное название: Retribution
Год выпуска: 2023
Жанр: Боевик, триллер, драма, криминал
Режиссер: Нимрод Антал--Актеры: Лиам Нисон, Нома Думезвени, Лилли Аспелл, Джек Чемпион, Эмбет Дэвидц, Мэттью Модайн, Ариан Моайед, Эмили Куше, Луца Маркуш, Бернхард Писк--Описание: Обычное утро обернулось настоящей катастрофой: отвозя детей в школу, Мэтт обнаружил бомбу у себя в машине. Чтобы выжить, ему придется слепо следовать всем инструкциям, которые отдает неизвестный. Правило только одно — не покидать транспортное средство.--pic pic--Страна: Франция, Германия, Испания, США
Студия: Atresmedia Cine, Canal+ [fr], Cine+, Kismet Media, Ombra Films,
The Picture Company, Studio Babelsberg, Studio Canal, Studiocanal Film, Télé Monté Carlo (TMC), Talent One, TF1, TF1 Films Production, Vaca Films
Продолжительность: 01:30:41
Перевод: Дублированный | Велес --Качество: BDRemux 2160p
Видео: 3840x2160 at 24.000 fps, MPEG-H HEVC HDR Video, 55300 kbps
Аудио #01: 48 kHz, AC3, 5.1, 384 Kbps | Дублированный | Велес | RUS |pic
Аудио #02: 48 kHz, TrueHD, 7.1, 3054 Kbps | Оригинал | ENG |pic
Аудио #03: 48 kHz, AC3, 5.1, 640 Kbps | Оригинал | ENG |pic
Субтитры: Английские--
General
Unique ID: 56365669991330817205067482575449348041 (0x2A67A2173E76D5E28B058D66E3E3D7C9)
Complete name: H:VideoHRetribution.2023.BDREMUX.2160p.HDR.DVP8.seleZen.mkv
Format: Matroska
Format version: Version 4
File size: 37.7 GiB
Duration: 1 h 30 min
Overall bit rate mode: Variable
Overall bit rate: 59.4 Mb/s
Frame rate: 24.000 FPS
Movie name: Retribution (2023) from seleZen
Encoded date: 2024-02-01 19:12:29 UTC
Writing application: mkvmerge v80.0 ('Roundabout') 64-bit
Writing library: libebml v1.4.4 + libmatroska v1.7.1
Video
ID: 1
ID in the original source m: 4117 (0x1015)
Format: HEVC
Format/Info: High Efficiency Video Coding
Format profile: Main [email protected]@High
HDR format: Dolby Vision, Version 1.0, dvhe.08.06, BL+RPU, Blu-ray compatible / SMPTE ST 2086, HDR10 compatible
Codec ID: V_MPEGH/ISO/HEVC
Duration: 1 h 30 min
Bit rate: 55.3 Mb/s
Width: 3 840 pixels
Height: 2 160 pixels
Display aspect ratio: 16:9
Frame rate mode: Constant
Frame rate: 24.000 FPS
Color space: YUV
Chroma subsampling: 4:2:0 (Type 2)
Bit depth: 10 bits
Bits/(Pixel*Frame): 0.278
Stream size: 35.0 GiB (93%)
Language: English
Default: No
Forced: No
Color range: Limited
Color primaries: BT.2020
Transfer characteristics: PQ
Matrix coefficients: BT.2020 non-constant
Mastering display color pri: BT.2020
Mastering display luminance: min: 0.0001 cd/m2, max: 1000 cd/m2
Maximum Content Light Level: 1115 cd/m2
Maximum Frame-Average Light: 374 cd/m2
Original source medium: Blu-ray
Audio #1
ID: 2
Format: AC-3
Format/Info: Audio Coding 3
Commercial name: Dolby Digital
Codec ID: A_AC3
Duration: 1 h 30 min
Bit rate mode: Constant
Bit rate: 384 kb/s
Channel(s): 6 channels
Channel layout: L R C LFE Ls Rs
Sampling rate: 48.0 kHz
Frame rate: 31.250 FPS (1536 SPF)
Compression mode: Lossy
Stream size: 249 MiB (1%)
Title: Dub
Language: Russian
Service kind: Complete Main
Default: Yes
Forced: No
Audio #2
ID: 3
Format: MLP FBA 16-ch
Format/Info: Meridian Lossless Packing FBA with 16-channel presentation
Commercial name: Dolby TrueHD with Dolby Atmos
Codec ID: A_TRUEHD
Duration: 1 h 30 min
Bit rate mode: Variable
Bit rate: 3 054 kb/s
Maximum bit rate: 5 304 kb/s
Channel(s): 8 channels
Channel layout: L R C LFE Ls Rs Lb Rb
Sampling rate: 48.0 kHz
Frame rate: 1 200.000 FPS (40 SPF)
Compression mode: Lossless
Stream size: 1.93 GiB (5%)
Title: Original
Language: English
Default: No
Forced: No
Number of dynamic objects: 13
Bed channel count: 1 channel
Bed channel configuration: LFE
Audio #3
ID: 4
Format: AC-3
Format/Info: Audio Coding 3
Commercial name: Dolby Digital
Codec ID: A_AC3
Duration: 1 h 30 min
Bit rate mode: Constant
Bit rate: 640 kb/s
Channel(s): 6 channels
Channel layout: L R C LFE Ls Rs
Sampling rate: 48.0 kHz
Frame rate: 31.250 FPS (1536 SPF)
Compression mode: Lossy
Stream size: 415 MiB (1%)
Language: English
Service kind: Complete Main
Default: No
Forced: No
Text
ID: 5
Format: UTF-8
Codec ID: S_TEXT/UTF8
Codec ID/Info: UTF-8 Plain Text
Duration: 1 h 22 min
Bit rate: 59 b/s
Frame rate: 0.237 FPS
Count of elements: 1171
Stream size: 35.7 KiB (0%)
Title: Full
Language: English
Default: No
Forced: No
Menu
00:00:00.000: en:Глава 01
00:09:53.917: en:Глава 02
00:20:08.000: en:Глава 03
00:30:09.125: en:Глава 04
00:40:18.667: en:Глава 05
00:46:53.083: en:Глава 06
00:57:30.542: en:Глава 07
01:09:46.417: en:Глава 08
01:16:46.583: en:Глава 09
01:25:15.000: en:Глава 10

Показать сообщения

Вы не можете начинать темы
Вы не можете отвечать на сообщения
Вы не можете редактировать свои сообщения
Вы не можете удалять свои сообщения
Вы не можете голосовать в опросах
Вы не можете прикреплять файлы к сообщениям
Вы не можете скачивать файлы

Текущее время: 16-Июн 15:51

Часовой пояс: UTC ± 0

Пользовательское соглашение Для правообладателей Реклама на сайте Top.Mail.Ru