Подождите, идет загрузка сайта ...
2
Вонка / Wonka- Год выпуска: 2023
Страна: США, Великобритания, Канада
Жанр: мюзикл, фэнтези, комедия, приключения, семейный
Продолжительность: 01:57:23
Перевод: Профессиональный (дублированный) Bravo Records Georgia
Субтитры: Русские, английские
Режиссер: Пол Кинг
В ролях: Тимоти Шаламе, Gustave Die, Мюррэй МакАртур, Пол Дж. Рэймонд, Берти Каплан, Изи Сатти, Кобна Холдбрук-Смит, Матильда Такер, Том Дэвис, Оливия Колман-Качество: WEB-DL 1080p
Формат: MKV
Видео кодек: AVC
Аудио кодек: E-AC3
Видео: AVC, 1920 x 800, ~8 402 kbps, 23,976 fps
Аудио 1: E-AC3, 6 ch, 48 kHz, 256 kbps RUS
Аудио 2: E-AC3, 6 ch, 48 kHz, 768 kbps ENG-Описание: Мечтая открыть магазин в городе, известном своим шоколадом, молодой и бедный Вилли Вонка обнаруживает, что индустрией управляет картель жадных шоколатье.
General
Unique ID : 195050305587499534554528866251489171403 (0x92BD528A11FB19FD832FA8A768DC57CB)
Complete name : Wonka.2023.1080p.WEB-DL.DDP5.1.Atmos.H.264-FLUX-RGB.mkv
Format : Matroska
Format version : Version 4
File size : 7.72 GiB
Duration : 1 h 57 min
Overall bit rate : 9 420 kb/s
Movie name : RGB
Encoded date : UTC 2024-01-20 03:00:58
Writing application : mkvmerge v37.0.0 ('Leave It') 64-bit
Writing library : libebml v1.3.9 + libmatroska v1.5.2
Video
ID : 1
Format : AVC
Format/Info : Advanced Video Codec
Format profile : High@L4
Format settings : CABAC / 4 Ref Frames
Format settings, CABAC : Yes
Format settings, Reference frames : 4 frames
Codec ID : V_MPEG4/ISO/AVC
Duration : 1 h 57 min
Bit rate mode : Constant
Bit rate : 8 402 kb/s
Nominal bit rate : 10 000 kb/s
Width : 1 920 pixels
Height : 800 pixels
Display aspect ratio : 2.40:1
Frame rate mode : Constant
Frame rate : 23.976 (24000/1001) FPS
Color space : YUV
Chroma subsampling : 4:2:0
Bit depth : 8 bits
Scan type : Progressive
Bits/(Pixel*Frame) : 0.228
Stream size : 6.89 GiB (89%)
Title : RGB
Language : English
Default : Yes
Forced : No
Color range : Limited
Color primaries : BT.709
Transfer characteristics : BT.709
Matrix coefficients : BT.709
Audio #1
ID : 2
Format : E-AC-3
Format/Info : Enhanced AC-3
Commercial name : Dolby Digital Plus
Codec ID : A_EAC3
Duration : 1 h 56 min
Bit rate mode : Constant
Bit rate : 256 kb/s
Channel(s) : 6 channels
Channel layout : L R C LFE Ls Rs
Sampling rate : 48.0 kHz
Frame rate : 31.250 FPS (1536 SPF)
Compression mode : Lossy
Stream size : 214 MiB (3%)
Title : RGB [Bravo Records Georgia]
Language : Russian
Service kind : Complete Main
Default : Yes
Forced : No
Audio #2
ID : 3
Format : E-AC-3 JOC
Format/Info : Enhanced AC-3 with Joint Object Coding
Commercial name : Dolby Digital Plus with Dolby Atmos
Codec ID : A_EAC3
Duration : 1 h 56 min
Bit rate mode : Constant
Bit rate : 768 kb/s
Channel(s) : 6 channels
Channel layout : L R C LFE Ls Rs
Sampling rate : 48.0 kHz
Frame rate : 31.250 FPS (1536 SPF)
Compression mode : Lossy
Stream size : 638 MiB (8%)
Language : English
Service kind : Complete Main
Default : No
Forced : No
Complexity index : 16
Number of dynamic objects : 15
Bed channel count : 1 channel
Bed channel configuration : LFE
Text #1
ID : 4
Format : UTF-8
Codec ID : S_TEXT/UTF8
Codec ID/Info : UTF-8 Plain Text
Duration : 1 h 54 min
Bit rate : 113 b/s
Count of elements : 2190
Stream size : 95.0 KiB (0%)
Language : Russian
Default : No
Forced : No
Text #2
ID : 5
Format : UTF-8
Codec ID : S_TEXT/UTF8
Codec ID/Info : UTF-8 Plain Text
Duration : 1 h 54 min
Bit rate : 81 b/s
Count of elements : 2348
Stream size : 68.8 KiB (0%)
Language : English
Default : No
Forced : No
Text #3
ID : 6
Format : UTF-8
Codec ID : S_TEXT/UTF8
Codec ID/Info : UTF-8 Plain Text
Duration : 1 h 54 min
Bit rate : 95 b/s
Count of elements : 2602
Stream size : 80.5 KiB (0%)
Title : SDH
Language : English
Default : No
Forced : No

Показать сообщения

Вы не можете начинать темы
Вы не можете отвечать на сообщения
Вы не можете редактировать свои сообщения
Вы не можете удалять свои сообщения
Вы не можете голосовать в опросах
Вы не можете прикреплять файлы к сообщениям
Вы не можете скачивать файлы

Текущее время: 23-Июн 07:25

Часовой пояс: UTC ± 0

Пользовательское соглашение Для правообладателей Реклама на сайте Top.Mail.Ru