Подождите, идет загрузка сайта ...
2
Властелины воздуха / Masters of the Air- Год выхода: 2024
Жанр: военный, боевик, история
Страна: США
Студия: Amblin Television, Apple Studios, Parliament of Owls, Playtone
Продолжительность: ~ 1:00:00
Перевод: Профессиональный (многоголосый, закадровый) | Jaskier (Надписи озвучены!)
Субтитры: Русcкие, английские
Режиссер: Кэри Дзёдзи Фукунага, Анна Боден, Райан Флек, Ди Риис, Тимоти Ван Паттен
В ролях: Остин Батлер, Каллум Тернер, Энтони Бойл, Нэйт Манн, Барри Кеоган, Рафф Лоу, Эдвард Эшли, Джонас Мур, Эллиот Уоррен, Бен Рэдклифф и другие-Файл
Формат: Matroska
Качество: WEB-DLRip-AVC
Видео: 1024x428 at 23.976 fps, [email protected], ~1719 kbps
Аудио: AC3, 6 ch, ~448 kbps - | Русский | Властелины воздуха / Masters of the Air [01x01-08 из 09] (2024) WEB-DLRip-AVC от DoMiNo & селезень | P
Формат субтитров: softsub (SRT)-О фильме:
«Властелины воздуха» — масштабный 300-миллионный сериал Стивена Спилберга, Тома Хэнкса и Гари Гоэцмана, который можно считать третьей частью обширного полотна этой тройки продюсеров о Второй мировой войне. Та же команда стояла за «Братьями по оружию» и «На Тихом океане». Как и предшественники, драма о летчиках отличается грандиозным изображением небесных сражений, внушительными декорациями, аутентичными костюмами и предметами быта тех лет, уникальной системой подготовки актеров «по Станиславскому» и их проникновенной игрой. В главных ролях здесь трио молодых талантов Голливуда — Остин Батлер («Элвис»), Каллум Тернер («Захват») и Барри Кеоган («Убийство священного оленя»).
General
Unique ID: 29751790759565698768856246002704039303 (0×1661FC8972D7102FC421ACBAC8C5BD87)
Complete name: E: Masters.of.the.Air.S01E01.WEB-DLRip.x264.seleZen.mkv
Format: Matroska
Format version: Version 4
File size: 969 MiB
Duration: 1 h 2 min
Overall bit rate: 2 170 kb/s
Frame rate: 23.976 FPS
Movie name: Masters.of.the.Air.S01E01.WEB-DLRip.x264.seleZen
Encoded date: 29.01.2024 16:53:06 UTC
Writing application: mkvmerge v82.0 ('I’m The President') 64-bit
Writing library: libebml v1.4.5 + libmatroska v1.7.1
Cover: Yes
Attachments: cover.jpg / small_cover.jpg
Video
ID: 1
Format: AVC
Format/Info: Advanced Video Codec
Format profile: [email protected]
Format settings: CABAC / 10 Ref Frames
Format settings, CABAC: Yes
Format settings, Reference: 10 frames
Codec ID: V_MPEG4/ISO/AVC
Duration: 1 h 2 min
Bit rate: 1 719 kb/s
Width: 1 024 pixels
Height: 428 pixels
Display aspect ratio: 2.40:1
Frame rate mode: Constant
Frame rate: 23.976 (24000/1001) FPS
Color space: YUV
Chroma subsampling: 4:2:0
Bit depth: 8 bits
Scan type: Progressive
Bits/(Pixel*Frame): 0.164
Stream size: 768 MiB (79%)
Title: -=DoMiNo=-
Writing library: x264 core 164 r3173 -DoMiNo
Encoding settings: cabac=1 / ref=10 / deblock=1:-2:-1 / analyse=0×3:0×133 / me=umh / subme=10 / psy=1 / psy_rd=1.00:0.15 / mixed_ref=1 / me_range=32 / chroma_me=1 / trellis=2 / 8×8dct=1 / cqm=0 / deadzone=21,11 / fast_pskip=0 / chroma_qp_offset=-3 / threads=17 / lookahead_threads=3 / sliced_threads=0 / nr=0 / decimate=0 / interlaced=0 / bluray_compat=0 / constrained_intra=0 / bframes=10 / b_pyramid=2 / b_adapt=2 / b_bias=0 / direct=1 / weightb=1 / open_gop=0 / weightp=2 / keyint=250 / keyint_min=23 / scenecut=40 / intra_refresh=0 / rc_lookahead=60 / rc=crf / mbtree=0 / crf=19.3 / qcomp=0.60 / qpmin=0 / qpmax=69 / qpstep=4 / vbv_maxrate=50000 / vbv_bufsize=62500 / crf_max=0.0 / nal_hrd=none / filler=0 / ip_ratio=1.40 / pb_ratio=1.30 / aq=3:0.90
Language: English
Default: Yes
Forced: No
Color range: Limited
Color primaries: BT.709
Transfer characteristics: BT.709
Matrix coefficients: BT.709
Audio
ID: 2
Format: AC-3
Format/Info: Audio Coding 3
Commercial name: Dolby Digital
Codec ID: A_AC3
Duration: 1 h 2 min
Bit rate mode: Constant
Bit rate: 448 kb/s
Channel (s): 6 channels
Channel layout: L R C LFE Ls Rs
Sampling rate: 48.0 kHz
Frame rate: 31.250 FPS (1536 SPF)
Compression mode: Lossy
Stream size: 200 MiB (21%)
Title: Jaskier
Language: Russian
Service kind: Complete Main
Default: Yes
Forced: No
Text #1
ID: 3
Format: UTF-8
Codec ID: S_TEXT/UTF8
Codec ID/Info: UTF-8 Plain Text
Duration: 1 h 1 min
Bit rate: 94 b/s
Frame rate: 0.221 FPS
Count of elements: 819
Stream size: 42.9 KiB (0%)
Language: Russian
Default: No
Forced: No
Text #2
ID: 4
Format: UTF-8
Codec ID: S_TEXT/UTF8
Codec ID/Info: UTF-8 Plain Text
Duration: 56 min 16 s
Bit rate: 69 b/s
Frame rate: 0.249 FPS
Count of elements: 840
Stream size: 28.6 KiB (0%)
Language: English
Default: No
Forced: No
Text #3
ID: 5
Format: UTF-8
Codec ID: S_TEXT/UTF8
Codec ID/Info: UTF-8 Plain Text
Duration: 56 min 17 s
Bit rate: 79 b/s
Frame rate: 0.276 FPS
Count of elements: 932
Stream size: 32.6 KiB (0%)
Title: SDH
Language: English
Default: No
Forced: No

Показать сообщения

Вы не можете начинать темы
Вы не можете отвечать на сообщения
Вы не можете редактировать свои сообщения
Вы не можете удалять свои сообщения
Вы не можете голосовать в опросах
Вы не можете прикреплять файлы к сообщениям
Вы не можете скачивать файлы

Текущее время: 16-Июн 14:41

Часовой пояс: UTC ± 0

Пользовательское соглашение Для правообладателей Реклама на сайте Top.Mail.Ru