Подождите, идет загрузка сайта ...
65
Винни-Пух: Кровь и мёд / Winnie the Pooh: Blood and Honey-
Год выхода: 2023
Страна: Великобритания
Студия: ITN Studios, Jagged Edge Productions
Жанр: Ужасы
Продолжительность: 01:24:06
Перевод: Профессиональный (полное дублирование) | Мосфильм-Мастер-Режиссер:
Рис Фрейк-Уотерфилд-В ролях:
Николай Леон, Крэйг Дэвид Даусетт, Мария Тейлор, Наташа Роуз Миллс, Даниэль Рональд, Наташа Тосини, Паула Коис, Джиллиан Бродерик, Крис Корделл, Тоби Винн-Дэвис-О фильме:
Будучи наивным ребёнком, Кристофер Робин подружился в Стоакровом лесу со странными существами, дал им имена и многие годы таскал им еду с кухни. Когда парень вырос и уехал в колледж, лесные друзья не вынесли голода и предательства — они озлобились и поклялись больше никогда не разговаривать на человеческом языке. Не поздоровилось и самому Кристоферу, спустя годы решившему показать своей невесте места, где он провёл счастливое детство. Теперь Винни и Пятак зверски истребляют всех, кто оказывается в их лесу, и приехавшая в съёмный дом провести веселые выходные компания девушек исключением не станет.-pic pic-Качество: BDRip 720p
Формат: MKV
Видео: MPEG-4 AVC, 1280x534, 3198 Кbit/s, 23.976 fps
Аудио #01: 48 kHz, AC3, 5.1, 448 Kbps | Дублированный | Мосфильм-Мастер | RUS |pic
Аудио #02: 48 kHz, AC3, 5.1, 640 Kbps | Оригинал | ENG |pic
Субтитры: Английские-
pic pic pic pic pic
General
Unique ID : 272327325823746347644372372179994359640 (0xCCE055CC407674AE1888DB1A753D3758)
Complete name : D:VideoWinnie.the.Pooh.Blood.and.Honey.2023.BDRip.720p.seleZen.mkv
Format : Matroska
Format version : Version 4
File size : 2.52 GiB
Duration : 1 h 24 min
Overall bit rate : 4 288 kb/s
Movie name : Winnie the Pooh Blood and Honey 2023 from seleZen
Encoded date : UTC 2023-04-14 21:58:03
Writing application : mkvmerge v59.0.0 ('Shining Star') 64-bit
Writing library : libebml v1.4.2 + libmatroska v1.6.4
Video
ID : 1
Format : AVC
Format/Info : Advanced Video Codec
Format profile : [email protected]
Format settings : CABAC / 12 Ref Frames
Format settings, CABAC : Yes
Format settings, Reference : 12 frames
Codec ID : V_MPEG4/ISO/AVC
Duration : 1 h 24 min
Bit rate : 3 198 kb/s
Width : 1 280 pixels
Height : 534 pixels
Display aspect ratio : 2.40:1
Frame rate mode : Constant
Frame rate : 23.976 (24000/1001) FPS
Color space : YUV
Chroma subsampling : 4:2:0
Bit depth : 8 bits
Scan type : Progressive
Bits/(Pixel*Frame) : 0.195
Stream size : 1.88 GiB (75%)
Writing library : x264 core 164 r3106+55M seleZen t_mod_New [(8 & 10)-bit@all X86_64]
Encoding settings : cabac=1 / ref=12 / deblock=1:-2:-2 / analyse=0x3:0x133 / me=umh / subme=10 / psy=1 / fade_compensate=0.00 / psy_rd=1.03:0.04 / mixed_ref=1 / me_range=32 / chroma_me=1 / trellis=2 / 8x8dct=1 / cqm=0 / deadzone=21,11 / fast_pskip=0 / chroma_qp_offset=-3 / threads=17 / lookahead_threads=2 / sliced_threads=0 / nr=0 / decimate=0 / interlaced=0 / bluray_compat=0 / constrained_intra=0 / fgo=0 / bframes=8 / b_pyramid=2 / b_adapt=2 / b_bias=0 / direct=1 / weightb=1 / open_gop=0 / weightp=2 / keyint=240 / keyint_min=23 / scenecut=40 / intra_refresh=0 / rc_lookahead=60 / rc=crf / mbtree=0 / crf=16.8000 / qcomp=0.60 / qpmin=0:0:0 / qpmax=51:51:51 / qpstep=4 / vbv_maxrate=50000 / vbv_bufsize=62500 / crf_max=0.0 / nal_hrd=none / filler=0 / ip_ratio=1.40 / pb_ratio=1.30 / aq=3:0.80 / aq-sensitivity=10.00 / aq-factor=1.00:1.00:1.00 / aq2=0 / aq3=0
Language : English
Default : Yes
Forced : No
Audio #1
ID : 2
Format : AC-3
Format/Info : Audio Coding 3
Commercial name : Dolby Digital
Codec ID : A_AC3
Duration : 1 h 24 min
Bit rate mode : Constant
Bit rate : 448 kb/s
Channel(s) : 6 channels
Channel layout : L R C LFE Ls Rs
Sampling rate : 48.0 kHz
Frame rate : 31.250 FPS (1536 SPF)
Compression mode : Lossy
Stream size : 269 MiB (10%)
Title : Dub
Language : Russian
Service kind : Complete Main
Default : Yes
Forced : Yes
Audio #2
ID : 3
Format : AC-3
Format/Info : Audio Coding 3
Commercial name : Dolby Digital
Codec ID : A_AC3
Duration : 1 h 24 min
Bit rate mode : Constant
Bit rate : 640 kb/s
Channel(s) : 6 channels
Channel layout : L R C LFE Ls Rs
Sampling rate : 48.0 kHz
Frame rate : 31.250 FPS (1536 SPF)
Compression mode : Lossy
Stream size : 385 MiB (15%)
Title : Original
Language : English
Service kind : Complete Main
Default : No
Forced : No
Text
ID : 4
Format : UTF-8
Codec ID : S_TEXT/UTF8
Codec ID/Info : UTF-8 Plain Text
Duration : 1 h 23 min
Bit rate : 48 b/s
Frame rate : 0.216 FPS
Count of elements : 1085
Stream size : 29.6 KiB (0%)
Language : English
Default : No
Forced : No
Menu
00:00:00.000 : Chapter 01
00:00:14.473 : Chapter 02
00:08:02.899 : Chapter 03
00:14:51.766 : Chapter 04
00:21:00.176 : Chapter 05
00:30:34.124 : Chapter 06
00:36:37.320 : Chapter 07
00:45:26.891 : Chapter 08
00:51:10.609 : Chapter 09
00:57:27.235 : Chapter 10
01:06:05.086 : Chapter 11
01:13:17.685 : Chapter 12
01:21:01.190 : Chapter 13
01:24:05.791 : Chapter 14

селезень писал:
***Присутствует небольшая вставка многоголосого закадрового перевода от GoLTFilm
***Работа со звуком: селезень

Показать сообщения

Вы не можете начинать темы
Вы не можете отвечать на сообщения
Вы не можете редактировать свои сообщения
Вы не можете удалять свои сообщения
Вы не можете голосовать в опросах
Вы не можете прикреплять файлы к сообщениям
Вы не можете скачивать файлы

Текущее время: 12-Июн 22:15

Часовой пояс: UTC ± 0

Пользовательское соглашение Для правообладателей Реклама на сайте Top.Mail.Ru