Подождите, идет загрузка сайта ...
65
Винни-Пух: Кровь и мёд / Winnie the Pooh: Blood and Honey-
Год выхода: 2023
Страна: Великобритания
Студия: ITN Studios, Jagged Edge Productions
Жанр: Ужасы
Продолжительность: 01:24:06
Перевод: Профессиональный (полное дублирование) | Мосфильм-Мастер-Режиссер:
Рис Фрейк-Уотерфилд-В ролях:
Николай Леон, Крэйг Дэвид Даусетт, Мария Тейлор, Наташа Роуз Миллс, Даниэль Рональд, Наташа Тосини, Паула Коис, Джиллиан Бродерик, Крис Корделл, Тоби Винн-Дэвис-О фильме:
Будучи наивным ребёнком, Кристофер Робин подружился в Стоакровом лесу со странными существами, дал им имена и многие годы таскал им еду с кухни. Когда парень вырос и уехал в колледж, лесные друзья не вынесли голода и предательства — они озлобились и поклялись больше никогда не разговаривать на человеческом языке. Не поздоровилось и самому Кристоферу, спустя годы решившему показать своей невесте места, где он провёл счастливое детство. Теперь Винни и Пятак зверски истребляют всех, кто оказывается в их лесу, и приехавшая в съёмный дом провести веселые выходные компания девушек исключением не станет.-pic pic-Качество: BDRemux 1080p
Формат: MKV
Видео: MPEG-4 AVC, 1920x1080, 31.7 Mbit/s, 23.976 fps
Аудио #01: 48 kHz, AC3, 5.1, 448 Kbps | Дублированный | Мосфильм-Мастер | RUS |pic
Аудио #02: 48 kHz, DTS-HD MA, 5.1, 3628 Kbps | Оригинал | ENG |pic
Субтитры: Английские-
pic pic pic pic pic
General
Unique ID : 238790804537225260301258732018546681770 (0xB3A56FA39C6C4A7FBEF9A3A27D92A7AA)
Complete name : D:VideoWinnie.the.Pooh.Blood.and.Honey.2023.BDREMUX.1080p.seleZen.mkv
Format : Matroska
Format version : Version 4
File size : 21.0 GiB
Duration : 1 h 24 min
Overall bit rate mode : Variable
Overall bit rate : 35.7 Mb/s
Movie name : Winnie the Pooh Blood and Honey 2023 from seleZen
Encoded date : UTC 2023-04-14 22:05:51
Writing application : mkvmerge v59.0.0 ('Shining Star') 64-bit
Writing library : libebml v1.4.2 + libmatroska v1.6.4
Video
ID : 1
Format : AVC
Format/Info : Advanced Video Codec
Format profile : [email protected]
Format settings : CABAC / 4 Ref Frames
Format settings, CABAC : Yes
Format settings, Reference : 4 frames
Codec ID : V_MPEG4/ISO/AVC
Duration : 1 h 24 min
Bit rate mode : Variable
Bit rate : 31.7 Mb/s
Maximum bit rate : 35.0 Mb/s
Width : 1 920 pixels
Height : 1 080 pixels
Display aspect ratio : 16:9
Frame rate mode : Constant
Frame rate : 23.976 (24000/1001) FPS
Standard : NTSC
Color space : YUV
Chroma subsampling : 4:2:0
Bit depth : 8 bits
Scan type : Progressive
Bits/(Pixel*Frame) : 0.637
Stream size : 18.6 GiB (89%)
Language : English
Default : Yes
Forced : No
Color range : Limited
Color primaries : BT.709
Transfer characteristics : BT.709
Matrix coefficients : BT.709
Audio #1
ID : 2
Format : AC-3
Format/Info : Audio Coding 3
Commercial name : Dolby Digital
Codec ID : A_AC3
Duration : 1 h 24 min
Bit rate mode : Constant
Bit rate : 448 kb/s
Channel(s) : 6 channels
Channel layout : L R C LFE Ls Rs
Sampling rate : 48.0 kHz
Frame rate : 31.250 FPS (1536 SPF)
Compression mode : Lossy
Stream size : 269 MiB (1%)
Title : Dub
Language : Russian
Service kind : Complete Main
Default : Yes
Forced : Yes
Audio #2
ID : 3
Format : DTS XLL
Format/Info : Digital Theater Systems
Commercial name : DTS-HD Master Audio
Codec ID : A_DTS
Duration : 1 h 24 min
Bit rate mode : Variable
Bit rate : 3 628 kb/s
Channel(s) : 6 channels
Channel layout : C L R Ls Rs LFE
Sampling rate : 48.0 kHz
Frame rate : 93.750 FPS (512 SPF)
Bit depth : 24 bits
Compression mode : Lossless
Stream size : 2.13 GiB (10%)
Title : Original
Language : English
Default : No
Forced : No
Text
ID : 4
Format : UTF-8
Codec ID : S_TEXT/UTF8
Codec ID/Info : UTF-8 Plain Text
Duration : 1 h 23 min
Bit rate : 48 b/s
Frame rate : 0.216 FPS
Count of elements : 1085
Stream size : 29.6 KiB (0%)
Language : English
Default : No
Forced : No
Menu
00:00:00.000 : Chapter 01
00:00:14.473 : Chapter 02
00:08:02.899 : Chapter 03
00:14:51.766 : Chapter 04
00:21:00.176 : Chapter 05
00:30:34.124 : Chapter 06
00:36:37.320 : Chapter 07
00:45:26.891 : Chapter 08
00:51:10.609 : Chapter 09
00:57:27.235 : Chapter 10
01:06:05.086 : Chapter 11
01:13:17.685 : Chapter 12
01:21:01.190 : Chapter 13
01:24:05.791 : Chapter 14

селезень писал:
***Присутствует небольшая вставка многоголосого закадрового перевода от GoLTFilm
***Работа со звуком: селезень

Показать сообщения

Вы не можете начинать темы
Вы не можете отвечать на сообщения
Вы не можете редактировать свои сообщения
Вы не можете удалять свои сообщения
Вы не можете голосовать в опросах
Вы не можете прикреплять файлы к сообщениям
Вы не можете скачивать файлы

Текущее время: 12-Июн 22:18

Часовой пояс: UTC ± 0

Пользовательское соглашение Для правообладателей Реклама на сайте Top.Mail.Ru