Подождите, идет загрузка сайта ...
2
В поисках зверя / Butcher's Crossing-
Год выпуска: 2022
Страна: США
Жанр: драма, вестерн
Продолжительность: 01:47:25
Перевод: Профессиональный (многоголосый) Кипарис
Субтитры: Русские, английские
Режиссер: Гейб Польски
В ролях: Николас Кейдж, Рэйчел Келлер, Ксандер Беркли, Фред Хехингер, Джереми Бобб, Пол Рэйси, Zuzu Weingart, Эмбер Мэйсон, Duncan Vezain, Джефф Мэдли-Качество: BDRip 1080p
Формат: MKV
Видео кодек: AVC
Аудио кодек: AC3, DTS
Видео: AVC, 1920 x 960, 14.8 Mbps, 23.976 fps
Аудио 1: AC3, 6 ch, 48 kHz, 384 kbps RUS
Аудио 2: DTS, 6 ch, 48 kHz, 1509 kbps ENG-Описание: 1874 год. Наивный юноша Уилл Эндрюс бросает учебу в Гарварде, чтобы путешествовать по стране и почувствовать настоящую жизнь. Прибыв в Канзас, он решает отправиться в Скалистые горы Колорадо вместе с охотниками на бизонов. Уилл не умеет убивать и снимать шкуры, но он полон мальчишеского энтузиазма и достаточно богат, чтобы оплатить всю экспедицию. Команду возглавляет загадочный охотник Миллер. Он единственный знает путь в таинственную долину, где пасутся тысячи зверей с более толстыми и дорогостоящими шкурами.
General
Unique ID                      : 194992955793727537753694450800271336145 (0x92B246F9E814FDCC5792270DC9ECA2D1)
Complete name                  : F:\Torrents\Butchers.Crossing.2022.BDRip.1080p.ExKinoRay.mkv
Format                         : Matroska
Format version                 : Version 4
File size                      : 13.0 GiB
Duration                       : 1 h 47 min
Overall bit rate mode          : Variable
Overall bit rate               : 17.3 Mb/s
Frame rate                     : 23.976 FPS
Movie name                     : Butcher's Crossing (2022)
Encoded date                   : 2023-12-26 12:20:12 UTC
Writing application            : mkvmerge v74.0.0 ('You Oughta Know') 64-bit
Writing library                : libebml v1.4.4 + libmatroska v1.7.1
Video
ID                             : 1
Format                         : AVC
Format/Info                    : Advanced Video Codec
Format profile                 : [email protected]
Format settings                : CABAC / 4 Ref Frames
Format settings, CABAC         : Yes
Format settings, Reference fra : 4 frames
Codec ID                       : V_MPEG4/ISO/AVC
Duration                       : 1 h 47 min
Bit rate                       : 14.8 Mb/s
Width                          : 1 920 pixels
Height                         : 960 pixels
Display aspect ratio           : 2.000
Frame rate mode                : Constant
Frame rate                     : 23.976 (24000/1001) FPS
Color space                    : YUV
Chroma subsampling             : 4:2:0
Bit depth                      : 8 bits
Scan type                      : Progressive
Bits/(Pixel*Frame)             : 0.334
Stream size                    : 11.1 GiB (85%)
Title                          : potroks
Writing library                : x264 core 164 r3172 potroks
Encoding settings              : cabac=1 / ref=4 / deblock=1:-3:-3 / analyse=0x3:0x133 / me=umh / subme=11 / psy=1 / psy_rd=1.00:0.05 / mixed_ref=1 / me_range=32 / chroma_me=1 / trellis=2 / 8x8dct=1 / cqm=0 / deadzone=21,11 / fast_pskip=0 / chroma_qp_offset=-3 / threads=18 / lookahead_threads=10 / sliced_threads=0 / nr=0 / decimate=0 / interlaced=0 / bluray_compat=0 / constrained_intra=0 / bframes=10 / b_pyramid=2 / b_adapt=2 / b_bias=0 / direct=1 / weightb=1 / open_gop=0 / weightp=2 / keyint=250 / keyint_min=23 / scenecut=40 / intra_refresh=0 / rc_lookahead=60 / rc=crf / mbtree=0 / crf=18.7 / qcomp=0.70 / qpmin=0 / qpmax=69 / qpstep=4 / vbv_maxrate=50000 / vbv_bufsize=62500 / crf_max=0.0 / nal_hrd=none / filler=0 / ip_ratio=1.35 / pb_ratio=1.25 / aq=1:0.80
Language                       : English
Default                        : Yes
Forced                         : No
Audio #1
ID                             : 2
Format                         : AC-3
Format/Info                    : Audio Coding 3
Commercial name                : Dolby Digital
Codec ID                       : A_AC3
Duration                       : 1 h 47 min
Bit rate mode                  : Constant
Bit rate                       : 384 kb/s
Channel(s)                     : 6 channels
Channel layout                 : L R C LFE Ls Rs
Sampling rate                  : 48.0 kHz
Frame rate                     : 31.250 FPS (1536 SPF)
Compression mode               : Lossy
Stream size                    : 295 MiB (2%)
Title                          : MVO | DD 5.1 @ 384 kbps - Kiparis
Language                       : Russian
Service kind                   : Complete Main
Default                        : Yes
Forced                         : Yes
Audio #2
ID                             : 3
Format                         : DTS XLL
Format/Info                    : Digital Theater Systems
Commercial name                : DTS-HD Master Audio
Codec ID                       : A_DTS
Duration                       : 1 h 47 min
Bit rate mode                  : Variable
Bit rate                       : 2 124 kb/s
Channel(s)                     : 6 channels
Channel layout                 : C L R Ls Rs LFE
Sampling rate                  : 48.0 kHz
Frame rate                     : 93.750 FPS (512 SPF)
Bit depth                      : 16 bits
Compression mode               : Lossless
Stream size                    : 1.59 GiB (12%)
Title                          : Original | DTS 5.1 @ 1509 kbps
Language                       : English
Default                        : No
Forced                         : No
Text #1
ID                             : 4
Format                         : UTF-8
Codec ID                       : S_TEXT/UTF8
Codec ID/Info                  : UTF-8 Plain Text
Duration                       : 1 h 42 min
Bit rate                       : 53 b/s
Frame rate                     : 0.138 FPS
Count of elements              : 852
Stream size                    : 40.5 KiB (0%)
Title                          : Full
Language                       : Russian
Default                        : No
Forced                         : No
Text #2
ID                             : 5
Format                         : UTF-8
Codec ID                       : S_TEXT/UTF8
Codec ID/Info                  : UTF-8 Plain Text
Duration                       : 1 h 38 min
Bit rate                       : 35 b/s
Frame rate                     : 0.167 FPS
Count of elements              : 991
Stream size                    : 25.8 KiB (0%)
Title                          : Full
Language                       : English
Default                        : No
Forced                         : No
Text #3
ID                             : 6
Format                         : UTF-8
Codec ID                       : S_TEXT/UTF8
Codec ID/Info                  : UTF-8 Plain Text
Duration                       : 1 h 45 min
Bit rate                       : 42 b/s
Frame rate                     : 0.252 FPS
Count of elements              : 1586
Stream size                    : 33.0 KiB (0%)
Title                          : SDH
Language                       : English
Default                        : No
Forced                         : No
Menu
00:00:00.000                   : en:Chapter 01
00:05:35.418                   : en:Chapter 02
00:13:48.619                   : en:Chapter 03
00:17:04.481                   : en:Chapter 04
00:20:04.786                   : en:Chapter 05
00:23:37.499                   : en:Chapter 06
00:28:35.130                   : en:Chapter 07
00:32:32.367                   : en:Chapter 08
00:36:03.536                   : en:Chapter 09
00:48:06.466                   : en:Chapter 10
00:57:44.294                   : en:Chapter 11
01:03:22.131                   : en:Chapter 12
01:08:01.035                   : en:Chapter 13
01:11:27.783                   : en:Chapter 14
01:26:18.214                   : en:Chapter 15
01:33:05.913                   : en:Chapter 16

Показать сообщения

Вы не можете начинать темы
Вы не можете отвечать на сообщения
Вы не можете редактировать свои сообщения
Вы не можете удалять свои сообщения
Вы не можете голосовать в опросах
Вы не можете прикреплять файлы к сообщениям
Вы не можете скачивать файлы

Текущее время: 20-Июн 22:11

Часовой пояс: UTC ± 0

Пользовательское соглашение Для правообладателей Реклама на сайте Top.Mail.Ru