Подождите, идет загрузка сайта ...
65
- Уничтожь всех соседей / Destroy All Neighbors -- Год выхода: 2024
Страна: США
Студия: Counterpart Pictures, RLJE Films, Shudder, TBD Post
Жанр: Ужасы, комедия
Продолжительность: 01:25:34
Перевод: Любительский (двухголосый, закадровый) | Pazl Voice |
Режиссер: Джош Форбс--В ролях: Джона Рэй, Киран Деол, Рэнди Хеллер, Пит Пложек, ДеМорже Браун, Джон Дэйли, Томас Леннон, Райан Кэттнер, Кристиан Кэллоуэй, Алекс Уинтер--Описание: Неудачливый композитор из Лос-Анджелеса Уильям Браун, проживающий в дешевом жилом комплексе вместе со своей девушкой Эмили, стремится вырваться из нищеты за счет нового амбициозного музыкального проекта. Однажды его новым соседом становится гротескный и эксцентричный старик по имени Влад, приехавший из Восточной Европы, который создает много шума и мешает работать. В ходе завязавшейся драки Уильям случайно убивает соседа, после чего в панике берется расчленить и спрятать его тело. Главный герой оказывается не готов к тому, что расчлененный на куски Влад внезапно оживает и заявляет, что его невозможно убить.--pic pic--Формат: MKV
Качество: WEB-DL 1080p | AMZN
Видео: MPEG-4 AVC, 9083 Кбит/с, 1920x960
Аудио #1: AC3, 6 ch, 448 Кбит/с | RUS |pic
Аудио #2: E-AC3, 6 ch, 640 Кбит/с | ENG |pic--
Общее
Уникальный идентификатор : 7370796083243788072655192998115693776 (0x58B904DED450DC4B916C9B9DBA254D0)
Полное имя : D:\Torrents\Destroy.All.Neighbors.2024.1080p.AMZN_от New-Team.mkv
Формат : Matroska
Версия формата : Version 4
Размер файла : 6, 08 Гбайт
Продолжительность : 1 ч. 25 м.
Общий поток : 10, 2 Мбит/сек
Название фильма : Destroy.All.Neighbors.2024.1080p.AMZN_от New-Team
Дата кодирования : UTC 2024-02-03 09:24:15
Программа кодирования : mkvmerge v79.0 ('Funeral Pyres') 64-bit
Библиотека кодирования : libebml v1.4.4 + libmatroska v1.7.1
Видео
Идентификатор : 1
Формат : AVC
Формат/Информация : Advanced Video Codec
Профиль формата : High@L4
Настройки формата : CABAC / 4 Ref Frames
Параметр CABAC формата : Да
Параметр RefFrames формата : 4 кадра
Идентификатор кодека : V_MPEG4/ISO/AVC
Продолжительность : 1 ч. 25 м.
Вид битрейта : Постоянный
Битрейт : 9 083 Кбит/сек
Номинальный битрейт : 10 000 Кбит/сек
Ширина : 1 920 пикселей
Высота : 960 пикселей
Соотношение сторон : 2, 000
Режим частоты кадров : Постоянный
Частота кадров : 23, 976 (24000/1001) кадра/сек
Цветовое пространство : YUV
Субдискретизация насыщенности : 4:2:0
Битовая глубина : 8 бит
Тип развёртки : Прогрессивная
Бит/(Пиксели*Кадры) : 0.206
Размер потока : 5, 43 Гбайт (89%)
Язык : English
Default : Да
Forced : Нет
Цветовой диапазон : Limited
Основные цвета : BT.709
Характеристики трансфера : BT.709
Коэффициенты матрицы : BT.709
Аудио #1
Идентификатор : 2
Формат : AC-3
Формат/Информация : Audio Coding 3
Коммерческое название : Dolby Digital
Идентификатор кодека : A_AC3
Продолжительность : 1 ч. 25 м.
Вид битрейта : Постоянный
Битрейт : 448 Кбит/сек
Каналы : 6 каналов
Channel layout : L R C LFE Ls Rs
Частота : 48, 0 КГц
Частота кадров : 31, 250 кадров/сек (1536 SPF)
Метод сжатия : С потерями
Размер потока : 274 Мбайт (4%)
Заголовок : MVO - Pazl Voice
Язык : Russian
Service kind : Complete Main
Default : Да
Forced : Нет
Аудио #2
Идентификатор : 3
Формат : E-AC-3
Формат/Информация : Enhanced AC-3
Коммерческое название : Dolby Digital Plus
Идентификатор кодека : A_EAC3
Продолжительность : 1 ч. 25 м.
Вид битрейта : Постоянный
Битрейт : 640 Кбит/сек
Каналы : 6 каналов
Channel layout : L R C LFE Ls Rs
Частота : 48, 0 КГц
Частота кадров : 31, 250 кадров/сек (1536 SPF)
Метод сжатия : С потерями
Размер потока : 392 Мбайт (6%)
Заголовок : Original
Язык : English
Service kind : Complete Main
Default : Нет
Forced : Нет
Текст #1
Идентификатор : 4
Формат : UTF-8
Идентификатор кодека : S_TEXT/UTF8
Идентификатор кодека/Информация : UTF-8 Plain Text
Продолжительность : 1 ч. 21 м.
Битрейт : 85 бит/сек
Count of elements : 1612
Размер потока : 51, 0 Кбайт (0%)
Заголовок : [full]
Язык : English
Default : Нет
Forced : Нет
Текст #2
Идентификатор : 5
Формат : UTF-8
Идентификатор кодека : S_TEXT/UTF8
Идентификатор кодека/Информация : UTF-8 Plain Text
Продолжительность : 1 ч. 25 м.
Битрейт : 91 бит/сек
Count of elements : 2012
Размер потока : 57, 3 Кбайт (0%)
Заголовок : [SDH]
Язык : English
Default : Нет
Forced : Нет

Показать сообщения

Вы не можете начинать темы
Вы не можете отвечать на сообщения
Вы не можете редактировать свои сообщения
Вы не можете удалять свои сообщения
Вы не можете голосовать в опросах
Вы не можете прикреплять файлы к сообщениям
Вы не можете скачивать файлы

Текущее время: 20-Июн 21:32

Часовой пояс: UTC ± 0

Пользовательское соглашение Для правообладателей Реклама на сайте Top.Mail.Ru