Подождите, идет загрузка сайта ...
2
Тень Чикатило
1 сезон: 1-6 серии из 8
- Год выпуска: 2024
Страна: |pic Россия, "Ökko Studios, К.Б.А. / Кинокомпания братьев Андреасян"
Жанр: Триллер, детектив, драма
Продолжительность: 6 х ~ 00:55:00
Сезоны / серии: 1 сезон: 1-6 серии из 8
Перевод: Не требуется
Субтитры: Русские (Enigma) ExKinoRay
В ролях: Дмитрий Нагиев, Николай Козак, Дмитрий Власкин, Константин Лавроненко, Юлия Афанасьева, Виталий Кищенко, Евгений Шириков, Олег Каменщиков, Карэн Бадалов, Виктория Богатырёва, Алексей Кирсанов, Елизавета Моряк, Марк Богатырёв, Елизавета Говорова, Олег Евтеев, Александр Булатов, Михаил Скачков, Владимир Брест, Игорь Кулачко, Антон Полетаев, Валентина Муравская, Айтэч Ашхамахов, Александр Мнацаканов, Андрей Москвичёв, Ольга Дубровина, Полина Суворова, Лара Шум, Максим Романов, Ростислав Харин, Мария Денкова, Аделина Коблова, Денис Яковлев, Сергей Баровский, Алина Мещерякова, Антон Никушин, Марк Давыдов, Юлия Медведева-Титаренко, Грант Амирян, Сергей Михайлов, Максим Демченко, Мария Чувилина, Руслан Банковский, Олег Цветков, Олег Сурнов, Вадим Аникин, Денис Волков
Режиссёр: Сарик Андреасян, Давид Дадунашвили-Качество: WEB-DL (1080p)
Формат: MKV
Видео кодек: AVC
Аудио кодек: AC3, E-AC3
Видео: MPEG-4 AVC, ~ 5000 Кбит/с, 1920x1080, 25,000 кадров/сек
Аудио №1: Русский, AC3, 6 ch, 384 Кбит/с, 48,0 КГц (с цензурой)
Аудио №2: Русский, AC3, 6 ch, 384 Кбит/с, 48,0 КГц (без цензуры, 18+) Присутствует ненормативная лексика
Аудио №3: Русский, E-AC3, 6 ch, 384 Кбит/с, 48,0 КГц (с цензурой)
Аудио №4: Русский, E-AC3, 6 ch, 384 Кбит/с, 48,0 КГц (без цензуры, 18+) Присутствует ненормативная лексика-Описание: Из-за присущей ему хитрости, изворотливости и доступа к милицейским архивам и базам данных Попцову удается в течение многих лет избегать наказания, наводя ужас на всю Иркутскую область. Он постепенно превращается в полумистического персонажа, неуловимого демона, от которого нет спасения. И все же оперативники во главе с Ковалевым, пройдя через череду сложных жизненных ситуаций, выйдут на след убийцы, остановив страшный конвейер смерти.
Общее
Уникальный идентификатор                 : 173522800263108276588622508303104240297 (0x828B4694AC329375E26E6507A6726AA9)
Полное имя                               : D:\Видео\Chikatilo.S03.2024.WEB-DL.1080p.ExKinoRay\Chikatilo.S03.E01.2024.WEB-DL.1080p.ExKinoRay.mkv
Формат                                   : Matroska
Версия формата                           : Version 4
Размер файла                             : 2,54 Гбайт
Продолжительность                        : 55 м. 48 с.
Общий поток                              : 6 519 Кбит/сек
Частота кадров                           : 25,000 кадров/сек
Дата кодирования                         : 2024-04-14 22:46:25 UTC
Программа кодирования                    : mkvmerge v56.1.0 ('My Friend') 64-bit
Библиотека кодирования                   : libebml v1.4.2 + libmatroska v1.6.4
Видео
Идентификатор                            : 1
Формат                                   : AVC
Формат/Информация                        : Advanced Video Codec
Профиль формата                          : High@L4
Настройки формата                        : CABAC / 3 Ref Frames
Параметр CABAC формата                   : Да
Параметр RefFrames формата               : 3 кадра
Идентификатор кодека                     : V_MPEG4/ISO/AVC
Продолжительность                        : 55 м. 48 с.
Битрейт                                  : 5 000 Кбит/сек
Ширина                                   : 1 920 пикселей
Высота                                   : 1 080 пикселей
Соотношение сторон                       : 16:9
Режим частоты кадров                     : Постоянный
Частота кадров                           : 25,000 кадров/сек
Цветовое пространство                    : YUV
Субдискретизация насыщенности            : 4:2:0
Битовая глубина                          : 8 бит
Тип развёртки                            : Прогрессивная
Бит/(Пиксели*Кадры)                      : 0.096
Размер потока                            : 1,94 Гбайт (76%)
Библиотека кодирования                   : x264 core 164 r3095 baee400
Настройки программы                      : cabac=1 / ref=4 / deblock=1:-1:-1 / analyse=0x3:0x133 / me=umh / subme=9 / psy=1 / psy_rd=0.40:1.00 / mixed_ref=1 / me_range=24 / chroma_me=1 / trellis=0 / 8x8dct=1 / cqm=0 / deadzone=21,11 / fast_pskip=1 / chroma_qp_offset=-2 / threads=3 / lookahead_threads=1 / sliced_threads=0 / nr=0 / decimate=1 / interlaced=0 / bluray_compat=0 / stitchable=1 / constrained_intra=0 / bframes=8 / b_pyramid=1 / b_adapt=0 / b_bias=0 / direct=3 / weightb=1 / open_gop=0 / weightp=2 / keyint=75 / keyint_min=38 / scenecut=0 / intra_refresh=0 / rc_lookahead=40 / rc=2pass / mbtree=1 / bitrate=5000 / ratetol=1.0 / qcomp=0.80 / qpmin=1 / qpmax=69 / qpstep=4 / cplxblur=20.0 / qblur=0.5 / vbv_maxrate=7500 / vbv_bufsize=10000 / nal_hrd=none / filler=0 / ip_ratio=1.40 / aq=1:1.00
Язык                                     : Russian
Default                                  : Да
Forced                                   : Нет
Цветовой диапазон                        : Limited
Основные цвета                           : BT.709
Характеристики трансфера                 : BT.709
Коэффициенты матрицы                     : BT.709
Аудио #1
Идентификатор                            : 2
Формат                                   : AC-3
Формат/Информация                        : Audio Coding 3
Коммерческое название                    : Dolby Digital
Идентификатор кодека                     : A_AC3
Продолжительность                        : 55 м. 48 с.
Вид битрейта                             : Постоянный
Битрейт                                  : 384 Кбит/сек
Каналы                                   : 6 каналов
Channel layout                           : L R C LFE Ls Rs
Частота                                  : 48,0 КГц
Частота кадров                           : 31,250 кадров/сек (1536 SPF)
Метод сжатия                             : С потерями
Размер потока                            : 153 Мбайт (6%)
Язык                                     : Russian
Service kind                             : Complete Main
Default                                  : Да
Forced                                   : Нет
Аудио #2
Идентификатор                            : 3
Формат                                   : AC-3
Формат/Информация                        : Audio Coding 3
Коммерческое название                    : Dolby Digital
Идентификатор кодека                     : A_AC3
Продолжительность                        : 55 м. 48 с.
Вид битрейта                             : Постоянный
Битрейт                                  : 384 Кбит/сек
Каналы                                   : 6 каналов
Channel layout                           : L R C LFE Ls Rs
Частота                                  : 48,0 КГц
Частота кадров                           : 31,250 кадров/сек (1536 SPF)
Метод сжатия                             : С потерями
Размер потока                            : 153 Мбайт (6%)
Заголовок                                : 18+
Язык                                     : Russian
Service kind                             : Complete Main
Default                                  : Нет
Forced                                   : Нет
Аудио #3
Идентификатор                            : 4
Формат                                   : E-AC-3
Формат/Информация                        : Enhanced AC-3
Коммерческое название                    : Dolby Digital Plus
Идентификатор кодека                     : A_EAC3
Продолжительность                        : 55 м. 48 с.
Вид битрейта                             : Постоянный
Битрейт                                  : 384 Кбит/сек
Каналы                                   : 6 каналов
Channel layout                           : L R C LFE Ls Rs
Частота                                  : 48,0 КГц
Частота кадров                           : 31,250 кадров/сек (1536 SPF)
Метод сжатия                             : С потерями
Размер потока                            : 153 Мбайт (6%)
Язык                                     : Russian
Service kind                             : Complete Main
Default                                  : Нет
Forced                                   : Нет
Аудио #4
Идентификатор                            : 5
Формат                                   : E-AC-3
Формат/Информация                        : Enhanced AC-3
Коммерческое название                    : Dolby Digital Plus
Идентификатор кодека                     : A_EAC3
Продолжительность                        : 55 м. 48 с.
Вид битрейта                             : Постоянный
Битрейт                                  : 384 Кбит/сек
Каналы                                   : 6 каналов
Channel layout                           : L R C LFE Ls Rs
Частота                                  : 48,0 КГц
Частота кадров                           : 31,250 кадров/сек (1536 SPF)
Метод сжатия                             : С потерями
Размер потока                            : 153 Мбайт (6%)
Заголовок                                : 18+
Язык                                     : Russian
Service kind                             : Complete Main
Default                                  : Нет
Forced                                   : Нет
Текст
Идентификатор                            : 6
Формат                                   : UTF-8
Идентификатор кодека                     : S_TEXT/UTF8
Идентификатор кодека/Информация          : UTF-8 Plain Text
Продолжительность                        : 53 м. 14 с.
Битрейт                                  : 111 бит/сек
Частота кадров                           : 0,305 кадр/сек
Count of elements                        : 975
Размер потока                            : 43,5 Кбайт (0%)
Язык                                     : Russian
Default                                  : Нет
Forced                                   : Нет

Показать сообщения

Вы не можете начинать темы
Вы не можете отвечать на сообщения
Вы не можете редактировать свои сообщения
Вы не можете удалять свои сообщения
Вы не можете голосовать в опросах
Вы не можете прикреплять файлы к сообщениям
Вы не можете скачивать файлы

Текущее время: 23-Июн 08:27

Часовой пояс: UTC ± 0

Пользовательское соглашение Для правообладателей Реклама на сайте Top.Mail.Ru