Подождите, идет загрузка сайта ...
65
Информация о фильме
Название: Телохранитель на фрилансе
Оригинальное название: Freelance
Год выхода: 2023
Жанр: Боевик, комедия
Режиссер: Пьер Морель--В ролях: Джон Сина, Элисон Бри, Элис Ив, Кристиан Слэйтер, Мартон Чокаш, Хуан Пабло Раба, Фиона Хорси, Молли Макканн, Джулианна Александр, Дэниэл Торо--Описание: Бывший спецназовец променял полную экшна жизнь на серые будни в офисе. С неохотой он все-таки соглашается на простую, но высокооплачиваемую подработку — сопровождать журналистку в командировке, пока та берет интервью у обаятельного диктатора. Однако на месте они внезапно попадают в эпицентр полномасштабного переворота. Теперь, чтобы спасти всех, телохранителю на фрилансе пригодятся все его боевые навыки, ведь предоплата уже внесена.--pic pic--Страна: США
Студия: AGC Studios, Endurance Media, Sentient Entertainment, Sentient Pictures, Signature Films, Wideangle Films, Yorkshire Film Services II
Продолжительность: 01:48:34
Перевод: Дублированный | Мосфильм-Мастер --Качество: BDRemux 2160p
Видео: 3840x2160 at 23.976 fps, MPEG-H HEVC HDR Video, 64800 kbps
Аудио #01: 48 kHz, AC3, 5.1, 448 Kbps | Дублированный | Мосфильм-Мастер | RUS |pic
Аудио #02: 48 kHz, E-AC3, 5.1, 448 Kbps | Дублированный | Мосфильм-Мастер | RUS |pic
Аудио #03: 48 kHz, DTS-HD MA, 5.1, 1966 Kbps | Оригинал | ENG |pic
Субтитры: Русские (Forced, full), английские-*** В дубляже присутсвует вставка, с английской звуковой дорожки, переведенная русскими форсированными субтитрами.--
General
Unique ID : 38819254669221025424308134957289988154 (0x1D3451060DCA3A3EFE613D143066603A)
Complete name : H:VideoHFreelance.2023.BDREMUX.2160p.HDR.seleZen.mkv
Format : Matroska
Format version : Version 4
File size : 51.3 GiB
Duration : 1 h 48 min
Overall bit rate mode : Variable
Overall bit rate : 67.7 Mb/s
Frame rate : 23.976 FPS
Movie name : Freelance.2023.seleZen
Encoded date : 2024-02-01 18:34:23 UTC
Writing application : mkvmerge v80.0 ('Roundabout') 64-bit
Writing library : libebml v1.4.4 + libmatroska v1.7.1
Video
ID : 1
Format : HEVC
Format/Info : High Efficiency Video Coding
Format profile : Main [email protected]@High
HDR format : SMPTE ST 2086, HDR10 compatible
Codec ID : V_MPEGH/ISO/HEVC
Duration : 1 h 48 min
Bit rate : 64.8 Mb/s
Width : 3 840 pixels
Height : 2 160 pixels
Display aspect ratio : 16:9
Frame rate mode : Constant
Frame rate : 23.976 (24000/1001) FPS
Color space : YUV
Chroma subsampling : 4:2:0 (Type 2)
Bit depth : 10 bits
Bits/(Pixel*Frame) : 0.326
Stream size : 49.2 GiB (96%)
Language : English
Default : Yes
Forced : No
Color range : Limited
Color primaries : BT.2020
Transfer characteristics : PQ
Matrix coefficients : BT.2020 non-constant
Mastering display color pri: Display P3
Mastering display luminance: min: 0.0050 cd/m2, max: 1000 cd/m2
Maximum Content Light Level: 694 cd/m2
Maximum Frame-Average Light: 134 cd/m2
Audio #1
ID : 2
Format : AC-3
Format/Info : Audio Coding 3
Commercial name : Dolby Digital
Codec ID : A_AC3
Duration : 1 h 48 min
Bit rate mode : Constant
Bit rate : 448 kb/s
Channel(s) : 6 channels
Channel layout : L R C LFE Ls Rs
Sampling rate : 48.0 kHz
Frame rate : 31.250 FPS (1536 SPF)
Compression mode : Lossy
Stream size : 348 MiB (1%)
Title : Dub | Мосфильм-Мастер
Language : Russian
Service kind : Complete Main
Default : Yes
Forced : No
Audio #2
ID : 3
Format : E-AC-3
Format/Info : Enhanced AC-3
Commercial name : Dolby Digital Plus
Codec ID : A_EAC3
Duration : 1 h 48 min
Bit rate mode : Constant
Bit rate : 448 kb/s
Channel(s) : 6 channels
Channel layout : L R C LFE Ls Rs
Sampling rate : 48.0 kHz
Frame rate : 31.250 FPS (1536 SPF)
Compression mode : Lossy
Stream size : 348 MiB (1%)
Title : Dub | Мосфильм-Мастер
Language : Russian
Service kind : Complete Main
Default : No
Forced : No
Audio #3
ID : 4
Format : DTS XLL
Format/Info : Digital Theater Systems
Commercial name : DTS-HD Master Audio
Codec ID : A_DTS
Duration : 1 h 48 min
Bit rate mode : Variable
Bit rate : 1 966 kb/s
Channel(s) : 6 channels
Channel layout : C L R Ls Rs LFE
Sampling rate : 48.0 kHz
Frame rate : 93.750 FPS (512 SPF)
Bit depth : 16 bits
Compression mode : Lossless
Stream size : 1.49 GiB (3%)
Title : Original
Language : English
Default : No
Forced : No
Text #1
ID : 5
Format : UTF-8
Codec ID : S_TEXT/UTF8
Codec ID/Info : UTF-8 Plain Text
Duration : 1 h 26 min
Bit rate : 3 b/s
Frame rate : 0.006 FPS
Count of elements : 31
Stream size : 2.54 KiB (0%)
Title : Forced
Language : Russian
Default : No
Forced : No
Text #2
ID : 6
Format : UTF-8
Codec ID : S_TEXT/UTF8
Codec ID/Info : UTF-8 Plain Text
Duration : 1 h 43 min
Bit rate : 90 b/s
Frame rate : 0.230 FPS
Count of elements : 1427
Stream size : 68.5 KiB (0%)
Title : Full
Language : Russian
Default : No
Forced : No
Text #3
ID : 7
Format : UTF-8
Codec ID : S_TEXT/UTF8
Codec ID/Info : UTF-8 Plain Text
Duration : 1 h 43 min
Bit rate : 60 b/s
Frame rate : 0.273 FPS
Count of elements : 1694
Stream size : 45.6 KiB (0%)
Title : Full
Language : English (US)
Default : No
Forced : No
Text #4
ID : 8
Format : UTF-8
Codec ID : S_TEXT/UTF8
Codec ID/Info : UTF-8 Plain Text
Duration : 1 h 43 min
Bit rate : 64 b/s
Frame rate : 0.300 FPS
Count of elements : 1860
Stream size : 49.0 KiB (0%)
Title : SDH
Language : English (US)
Default : No
Forced : No
Text #5
ID : 9
Format : UTF-8
Codec ID : S_TEXT/UTF8
Codec ID/Info : UTF-8 Plain Text
Duration : 1 h 15 min
Bit rate : 3 b/s
Frame rate : 0.020 FPS
Count of elements : 89
Stream size : 1.82 KiB (0%)
Title : Forced
Language : English (US)
Default : No
Forced : No
Menu
00:00:00.000 : en:Глава 01
00:09:28.568 : en:Глава 02
00:20:52.418 : en:Глава 03
00:29:16.713 : en:Глава 04
00:38:51.829 : en:Глава 05
00:49:16.954 : en:Глава 06
00:55:45.842 : en:Глава 07
01:04:29.407 : en:Глава 08
01:13:22.648 : en:Глава 09
01:22:14.638 : en:Глава 10
01:31:53.425 : en:Глава 11
01:43:10.017 : en:Глава 12

Показать сообщения

Вы не можете начинать темы
Вы не можете отвечать на сообщения
Вы не можете редактировать свои сообщения
Вы не можете удалять свои сообщения
Вы не можете голосовать в опросах
Вы не можете прикреплять файлы к сообщениям
Вы не можете скачивать файлы

Текущее время: 20-Июн 22:40

Часовой пояс: UTC ± 0

Пользовательское соглашение Для правообладателей Реклама на сайте Top.Mail.Ru