Подождите, идет загрузка сайта ...
2
Сны Алисы- Год выхода: 2023
Страна: Россия
Жанр: Мистика, триллер, драма
Студия: Кинокомпания "1-2-3-Production"
Продолжительность: ~ 00:56:37
Перевод: Не требуется
Субтитры: Нет
Сезон: 1
Количество серий: 1-5 из 8
Режиссер: Андрей Джунковский, Илья Овсенев
В ролях: Алина Гвасалия, Екатерина Вилкова, Александра Ребенок, Денис Шведов, Василина Юсковец, Алексей Розин, Дарья Екамасова, Полина Ауг, Екатерина Стулова, Ростислав Бершауэр, Алиса Руденко, Нил Бугаев, Юлия Салмина, Павел Ворожцов, Юлия Мельникова, Таисья Калинина, Евгений Егоров, Матвей Новиков, Кирилл Полухин, Евгений Харитонов, Елена Морозова, Варвара Феофанова-Качество: WEBRip-AVC by pic
Формат: MKV
Видео кодек: AVC
Аудио кодек: AC3
Видео: AVC, 1024x432, (2.40:1), ~1600 kbps, 25 fps, 0.145 bpp
Аудио: AC3 / 2 ch / 48.0 kHz / 192 kbps /-О фильме: Маленький северный городок с секретным военным объектом неподалеку. Здесь есть обычные школа, больница и магазин, но любой приезжий почувствует что-то странное. В этом городе живёт девочка Алиса. У неё проблемы с матерью и в школе, а ещё ей снятся страшные сны, которые предсказывают будущее. Алиса мечтает сбежать из дома вместе со своей единственной подругой. Но можно ли выбраться из города, который никогда никого не отпускал?
General
Unique ID : 247841744193083584724260968025867965463 (0xBA74956ACFB5AB57AC73608CCE685417)
Complete name : F:\Сны Алисы.(2023).WEBRip.(AVC).Files-x\01.Сны Алисы.(2023).WEBRip.(AVC).by.Серый1779.Files-x.mkv
Format : Matroska
Format version : Version 2
File size : 724 MiB
Duration : 56 min 37 s
Overall bit rate : 1 788 kb/s
Encoded date : UTC 2023-12-06 23:03:16
Writing application : mkvmerge v7.8.0 ('River Man') 32bit built on Apr 3 2015 12:11:22
Writing library : libebml v1.3.1 + libmatroska v1.4.2
Video
ID : 1
Format : AVC
Format/Info : Advanced Video Codec
Format profile : [email protected]
Format settings : CABAC / 9 Ref Frames
Format settings, CABAC : Yes
Format settings, RefFrames : 9 frames
Codec ID : V_MPEG4/ISO/AVC
Duration : 56 min 37 s
Bit rate : 1 600 kb/s
Width : 1 024 pixels
Height : 432 pixels
Display aspect ratio : 2.40:1
Frame rate mode : Constant
Frame rate : 25.000 FPS
Color space : YUV
Chroma subsampling : 4:2:0
Bit depth : 8 bits
Scan type : Progressive
Bits/(Pixel*Frame) : 0.145
Stream size : 632 MiB (87%)
Writing library : x264 core 146 r2538 121396c
Encoding settings : cabac=1 / ref=9 / deblock=1:-2:-1 / analyse=0x3:0x133 / me=umh / subme=9 / psy=1 / psy_rd=1.00:0.15 / mixed_ref=1 / me_range=32 / chroma_me=1 / trellis=2 / 8x8dct=1 / cqm=0 / deadzone=21,11 / fast_pskip=0 / chroma_qp_offset=-3 / threads=18 / lookahead_threads=3 / sliced_threads=0 / nr=0 / decimate=1 / interlaced=0 / bluray_compat=0 / constrained_intra=0 / bframes=9 / b_pyramid=2 / b_adapt=2 / b_bias=0 / direct=1 / weightb=1 / open_gop=0 / weightp=2 / keyint=250 / keyint_min=25 / scenecut=40 / intra_refresh=0 / rc=2pass / mbtree=0 / bitrate=1600 / ratetol=1.0 / qcomp=0.60 / qpmin=0 / qpmax=69 / qpstep=4 / cplxblur=20.0 / qblur=0.5 / ip_ratio=1.40 / pb_ratio=1.30 / aq=2:1.00
Default : Yes
Forced : No
Color range : Limited
Color primaries : BT.709
Transfer characteristics : BT.709
Matrix coefficients : BT.709
Audio
ID : 2
Format : AC-3
Format/Info : Audio Coding 3
Format settings, Endianness : Big
Codec ID : A_AC3
Duration : 56 min 37 s
Bit rate mode : Constant
Bit rate : 192 kb/s
Channel(s) : 2 channels
Channel positions : Front: L R
Sampling rate : 48.0 kHz
Frame rate : 31.250 FPS (1536 SPF)
Bit depth : 16 bits
Compression mode : Lossy
Stream size : 77.8 MiB (11%)
Service kind : Complete Main
Default : Yes
Forced : No
Внимание! Раздача ведётся путём добавления новых серий; при каждом добавлении создаётся новый торрент.
Чтобы начать докачку новой серии, пользователям необходимо сделать следующее:
1. Остановить скачивание;
2. Удалить старый торрент у себя из клиента (старые серии удалять не надо);
3. Скачать новый торрент и запустить его у себя в клиенте вместо старого, при этом указать клиенту путь в старую папку куда и должно происходить скачивание новых серий. Ваш клиент при этом должен произвести хеширование (проверку) старой папки и будет докачивать только те серии, которых у вас ещё нет. Старые серии при этом не удаляются, а продолжают раздаваться! Eсли вы уже удалили старые серии, то предотвратить повторную закачку старых серий можно, отжав галочку в соответствующих местах при запуске нового торрента.

Показать сообщения

Вы не можете начинать темы
Вы не можете отвечать на сообщения
Вы не можете редактировать свои сообщения
Вы не можете удалять свои сообщения
Вы не можете голосовать в опросах
Вы не можете прикреплять файлы к сообщениям
Вы не можете скачивать файлы

Текущее время: 12-Июн 19:01

Часовой пояс: UTC ± 0

Пользовательское соглашение Для правообладателей Реклама на сайте Top.Mail.Ru