Подождите, идет загрузка сайта ...
2
Слово пацана. Кровь на асфальте- Год выпуска: 2023
Страна: Россия
Жанр: Драма
Продолжительность: ~ 00:50:00
Сезон: 1 сезон
Серии: 1 - 8 серия из 8
Перевод: Не требуется
Субтитры: Русские
Режиссер: Жора Крыжовников-В ролях: Иван Янковский, Елизавета Базыкина, Ольга Лапшина, Никита Кологривый, Лев Зулькарнаев, Рузиль Минекаев, Юлия Александрова, Антон Васильев, Сергей Бурунов, Иван Макаревич, Ярослав Могильников, Слава Копейкин, Варвара Куприна, Даня Киселёв, Максим Горшков, Марина Барсукова, Павел Сергеев, Светлана Костюкова, Наталия Колоскова, Леон Кемстач, Роман Борзовский, Артём Борзовский, Александр Судницин, Ксения Абдрафигина, Анастасия Красовская, Андрей Максимов, Данила Шубнов, Григорий Дудник, Степан Летковский, Никита Манец, Мария Бокова, Лилия Закирова, Анна Пересильд-Качество: WEB-DL 1080p
Формат: MKV
Видео кодек: AVC
Аудио кодек: AC3
Видео: AVC, 1920 x 1080, 3 840 Kbps, 25.000 fps
Аудио 1: AC3, 6 ch, 48 kHz, 448 kbps
Аудио 2: AC3, 2 ch, 48 kHz, 192 kbps-Описание: Перестройка уже шагнула с кремлевских трибун на улицы больших и малых городов. Советский Союз умирает на глазах, и вместе с предчувствием перемен, свободой слова, музыки и цен появляется и свобода от совести, граничащая с беспределом. Пока родители борются за выживание, брошенные всеми дети сбиваются в уличные стаи и «бьются за асфальт». Бьются в буквальном смысле, чтобы контролировать все, что стоит на их земле или передвигается по ней. Среди всеобщей нищеты — понятные правила жизни, поддержка и слово пацана, которое сильнее клятвы. Но дружба и понятия о справедливости все больше смешиваются с насилием и криминалом. Андрей — 14-летний мальчик из интеллигентной семьи, который учится в музыкальной школе и живет с мамой и 5-летней сестрой. Регулярно он сталкивается с прессингом уличных подростков. Чтобы защитить себя, он заводит дружбу с «пацанами». Один из них — 14-летний Марат — становится проводником Андрея и зрителя в сложноустроенный мир улиц.
Общее
Уникальный идентификатор : 76708503010247486429178081758646375943 (0x39B58531F70A487D1489F071CA6C1607)
Полное имя : D:\Slovo.pacana.Krov.na.asfalte.S01.2023.WEB-DL.1080p\Slovo.pacana.Krov.na.asfalte.S01.E01.2023.WEB-DL.1080p.mkv
Формат : Matroska
Версия формата : Version 4
Размер файла : 1,60 Гбайт
Продолжительность : 51 м. 0 с.
Общий поток : 4 483 Кбит/сек
Название фильма : Slovo.pacana.Krov.na.asfalte.S01.E01.2023.WEB-DL.1080p
Дата кодирования : UTC 2023-12-05 17:52:11
Программа кодирования : mkvmerge v81.0 ('Milliontown') 64-bit
Библиотека кодирования : libebml v1.4.4 + libmatroska v1.7.1
Attachments : poster.jpg
Видео
Идентификатор : 1
Формат : AVC
Формат/Информация : Advanced Video Codec
Профиль формата : High@L4
Настройки формата : CABAC / 3 Ref Frames
Параметр CABAC формата : Да
Параметр RefFrames формата : 3 кадра
Идентификатор кодека : V_MPEG4/ISO/AVC
Продолжительность : 51 м. 0 с.
Битрейт : 3 840 Кбит/сек
Ширина : 1 920 пикселей
Высота : 1 080 пикселей
Соотношение сторон : 16:9
Режим частоты кадров : Постоянный
Частота кадров : 25,000 кадров/сек
Цветовое пространство : YUV
Субдискретизация насыщенности : 4:2:0
Битовая глубина : 8 бит
Тип развёртки : Прогрессивная
Бит/(Пиксели*Кадры) : 0.074
Размер потока : 1,37 Гбайт (86%)
Default : Да
Forced : Нет
Аудио #1
Идентификатор : 2
Формат : AC-3
Формат/Информация : Audio Coding 3
Коммерческое название : Dolby Digital
Идентификатор кодека : A_AC3
Продолжительность : 50 м. 59 с.
Вид битрейта : Постоянный
Битрейт : 448 Кбит/сек
Каналы : 6 каналов
Channel layout : L R C LFE Ls Rs
Частота : 48,0 КГц
Частота кадров : 31,250 кадров/сек (1536 SPF)
Метод сжатия : С потерями
Размер потока : 163 Мбайт (10%)
Заголовок : [Original | 5.1 AC-3 Audio]
Язык : Russian
Service kind : Complete Main
Default : Да
Forced : Нет
Аудио #2
Идентификатор : 3
Формат : AC-3
Формат/Информация : Audio Coding 3
Коммерческое название : Dolby Digital
Идентификатор кодека : A_AC3
Продолжительность : 51 м. 0 с.
Вид битрейта : Постоянный
Битрейт : 192 Кбит/сек
Каналы : 2 канала
Channel layout : L R
Частота : 48,0 КГц
Частота кадров : 31,250 кадров/сек (1536 SPF)
Метод сжатия : С потерями
Размер потока : 70,0 Мбайт (4%)
Заголовок : [Original | 2.0 AC-3 Audio]
Язык : Russian
Service kind : Complete Main
Default : Нет
Forced : Нет
Текст
Идентификатор : 4
Формат : UTF-8
Идентификатор кодека : S_TEXT/UTF8
Идентификатор кодека/Информация : UTF-8 Plain Text
Продолжительность : 47 м. 37 с.
Битрейт : 103 бит/сек
Частота кадров : 0,242 кадр/сек
Count of elements : 692
Размер потока : 36,0 Кбайт (0%)
Заголовок : [SDH]
Язык : Russian
Default : Нет
Forced : Нет

Показать сообщения

Вы не можете начинать темы
Вы не можете отвечать на сообщения
Вы не можете редактировать свои сообщения
Вы не можете удалять свои сообщения
Вы не можете голосовать в опросах
Вы не можете прикреплять файлы к сообщениям
Вы не можете скачивать файлы

Текущее время: 12-Июн 18:01

Часовой пояс: UTC ± 0

Пользовательское соглашение Для правообладателей Реклама на сайте Top.Mail.Ru