Подождите, идет загрузка сайта ...
2
ПРИМЕР
Пчеловод / The Beekeeper (Дэвид Эйр) [2024, Боевик, триллер, WEB-DL 1080p] MVO | Jaskier
Пчеловод / The Beekeeper- Год выпуска: 2024
Страна: Великобритания, США
Жанр: Боевик, триллер
Продолжительность: 01:45:14
Перевод : Многоголосый профессиональный [Jaskier]
Субтитры: Русский, Английский (Full, SDH), Французский
Режиссер: Дэвид Эйр
В ролях: Джейсон Стэйтем, Эмми Рэвер-Лэмпман, Бобби Надери, Джош Хатчерсон, Джереми Айронс, Дэвид Уиттс, Михаэль Эпп, Тейлор Джеймс, Филисия Рашад, Джемма Редгрейв-Качество: WEB-DL 1080p
Формат: MKV
Видео кодек: AVC
Аудио кодек: AC3, E-AC3
Видео: AVC/H.264, 1920x800 (24.0:1), 8483 Kbps, 23.976 кад/сек
Аудио 1: AC3, 6 ch, 384 Kbps, 48.0 kHz [русский]
Аудио 2: E-AC-3, 6 ch, 640 Kbps, 48.0 kHz [Английский]
Релиз от: Jaskier-Описание: Адам Клэй живет в тихом пригороде, занимается разведением пчел и не распространяется о своей прошлой жизни. Пожилая соседка рада, что в их край приехал заинтересованный человек, улучшающий природу и экологию. Пасечник часто общается с милой миссис Паркер, которая однажды становится жертвой финансовых мошенников. Аферисты похищают деньги со всех счетов женщины, и после тяжелого удара пенсионерка сводит счеты с жизнью. Адам решает за нее отомстить.
General
Unique ID                                : 177742033236694323710347343194964944030 (0x85B7DED3C23D6A37A322424C6040E49E)
Complete name                            : E:\Torrent\The.Beekeeper.2024.1080p.AMZN.WEB-DL.DDP5.1.H.264.Jaskier\The.Beekeeper.2024.1080p.AMZN.WEB-DL.DDP5.1.H.264-BZZZZZZZZZZZZZ.Jaskier.mkv
Format                                   : Matroska
Format version                           : Version 4
File size                                : 7.13 GiB
Duration                                 : 1 h 45 min
Overall bit rate                         : 9 700 kb/s
Movie name                               : The Beekeeper (2024) WEB-DLRip Jaskier
Encoded date                             : UTC 2024-02-01 11:45:06
Writing application                      : mkvmerge v6.6.0 ('The Edge Of The In Between') built on Dec  1 2013 17:55:00
Writing library                          : libebml v1.3.0 + libmatroska v1.4.1
Attachments                              : poster.jpg / log.log
Video
ID                                       : 1
Format                                   : AVC
Format/Info                              : Advanced Video Codec
Format profile                           : High@L4
Format settings                          : CABAC / 4 Ref Frames
Format settings, CABAC                   : Yes
Format settings, Reference frames        : 4 frames
Codec ID                                 : V_MPEG4/ISO/AVC
Duration                                 : 1 h 45 min
Bit rate mode                            : Constant
Bit rate                                 : 8 483 kb/s
Nominal bit rate                         : 10 000 kb/s
Width                                    : 1 920 pixels
Height                                   : 800 pixels
Display aspect ratio                     : 2.40:1
Frame rate mode                          : Constant
Frame rate                               : 23.976 (24000/1001) FPS
Color space                              : YUV
Chroma subsampling                       : 4:2:0
Bit depth                                : 8 bits
Scan type                                : Progressive
Bits/(Pixel*Frame)                       : 0.230
Stream size                              : 6.24 GiB (87%)
Language                                 : English
Default                                  : Yes
Forced                                   : No
Color range                              : Limited
Color primaries                          : BT.709
Transfer characteristics                 : BT.709
Matrix coefficients                      : BT.709
Audio #1
ID                                       : 2
Format                                   : AC-3
Format/Info                              : Audio Coding 3
Commercial name                          : Dolby Digital
Codec ID                                 : A_AC3
Duration                                 : 1 h 45 min
Bit rate mode                            : Constant
Bit rate                                 : 384 kb/s
Channel(s)                               : 6 channels
Channel layout                           : L R C LFE Ls Rs
Sampling rate                            : 48.0 kHz
Frame rate                               : 31.250 FPS (1536 SPF)
Compression mode                         : Lossy
Stream size                              : 289 MiB (4%)
Title                                    : Jaskier
Language                                 : Russian
Service kind                             : Complete Main
Default                                  : Yes
Forced                                   : Yes
Audio #2
ID                                       : 3
Format                                   : E-AC-3
Format/Info                              : Enhanced AC-3
Commercial name                          : Dolby Digital Plus
Codec ID                                 : A_EAC3
Duration                                 : 1 h 45 min
Bit rate mode                            : Constant
Bit rate                                 : 640 kb/s
Channel(s)                               : 6 channels
Channel layout                           : L R C LFE Ls Rs
Sampling rate                            : 48.0 kHz
Frame rate                               : 31.250 FPS (1536 SPF)
Compression mode                         : Lossy
Stream size                              : 482 MiB (7%)
Language                                 : English
Service kind                             : Complete Main
Default                                  : No
Forced                                   : No
Text #1
ID                                       : 4
Format                                   : UTF-8
Codec ID                                 : S_TEXT/UTF8
Codec ID/Info                            : UTF-8 Plain Text
Language                                 : Russian
Default                                  : No
Forced                                   : No
Text #2
ID                                       : 5
Format                                   : UTF-8
Codec ID                                 : S_TEXT/UTF8
Codec ID/Info                            : UTF-8 Plain Text
Language                                 : English
Default                                  : No
Forced                                   : No
Text #3
ID                                       : 6
Format                                   : UTF-8
Codec ID                                 : S_TEXT/UTF8
Codec ID/Info                            : UTF-8 Plain Text
Title                                    : SDH
Language                                 : English
Default                                  : No
Forced                                   : No
Text #4
ID                                       : 7
Format                                   : UTF-8
Codec ID                                 : S_TEXT/UTF8
Codec ID/Info                            : UTF-8 Plain Text
Title                                    : Canadian
Language                                 : French
Default                                  : No
Forced                                   : No
-ВАЖНО! Шапка темы / Название раздачи (Соблюдайте последовательность и знаки)

Перед оформлением раздачи, можно пробить название игры в поиске трекера, чтобы исключить повторы и посмотреть пример оформления названия
Если игры еще нет на трекере или названия не упорядочены, ориентируйтесь на шаблоны ниже (поля для заполнения выделяются даблкликом мыши):
[img=left]адрес обложки[/img]
[align=center][size=22][b]Название на русском / Название на оригинале[/b][/size][/align]
[hr]
[b]Год выпуска:[/b]
[b]Страна:[/b]
[b]Жанр:[/b]
[b]Продолжительность:[/b]
[b]Перевод:[/b]
[b]Субтитры:[/b]
[hr]
[b]В ролях:[/b]
[b]Режиссёр:[/b]
[hr]
[b]Качество:[/b]
[b]Формат:[/b]
[b]Видео кодек:[/b]
[b]Аудио кодек: [/b]
[b]Видео:[/b]
[b]Аудио:[/b]
[hr]
[b]Описание:[/b]
[hr]
[spoiler="Скриншоты"][thumbnails]]адреса скринов[/thumbnails]][/spoiler]

Показать сообщения

Вы не можете начинать темы
Вы не можете отвечать на сообщения
Вы не можете редактировать свои сообщения
Вы не можете удалять свои сообщения
Вы не можете голосовать в опросах
Вы не можете прикреплять файлы к сообщениям
Вы не можете скачивать файлы

Текущее время: 16-Июн 19:44

Часовой пояс: UTC ± 0

Пользовательское соглашение Для правообладателей Реклама на сайте Top.Mail.Ru