Подождите, идет загрузка сайта ...
65
Информация о сериале
Оригинальное название: Сёстры
Год выпуска: 2023
Жанр: Комедия, мелодрама
Режиссер: Илья Силаев--В ролях: Ангелина Миримская, Анна Котова (II), Ангелина Стречина, Антон Филипенко, Александр Обласов, Николай Шрайбер, Артём Ткаченко, Янина Студилина, Мария Лобанова, Георгий Дронов, Анна Шепелева, Максим Костромыкин, Елена Грук-Чернова, Сергей Погосян, Вадим Ракитин--О сериале: Сестры Маша, Ира и Оля продолжают руководить автосервисом, доставшимся им в наследство от отца. Разруливая проблемы, которые бесконечно подбрасывает им коллектив автомехаников, девушки пытаются наладить личную жизнь. Ира поглощена романтическими отношениями с Ильей, когда в город внезапно возвращается его бывшая жена. Маша, расставшись с мужем, пытается найти себя и новую любовь, а Оле предстоит сделать выбор между Игорем и неожиданными чувствами к другому человеку.--pic pic
Страна: Россия
Студия: Кинокомпания "START Studio"
Продолжительность: ~ 00:24:00--Файл
Формат: MKV
Качество: WEBRip 1080p
Видео: MPEG-4 AVC, ~ 5000 Кбит/с, 1920x1080
Аудио: AC3, 2 ch, 256 Кбит/с
Язык: Русский
Cубтитры: Русские (SDH)--
General
Unique ID: 139479030985290924499133823923804584250 (0x68EEAF2A474BAC9369DCECE7AC3E393A)
Complete name: W:\Sestry.S02.2023.WEB-DL.1080p.MrMittens\Sestry.S02.E01.2023.WEB-DL.1080p.MrMittens.mkv
Format: Matroska
Format version: Version 4 / Version 2
File size: 881 MiB
Duration: 24 min 25 s
Overall bit rate: 5 044 kb/s
Encoded date: UTC 2023-12-11 21:03:45
Writing application: mkvmerge v81.0 ('Milliontown') 64-bit
Writing library: libebml v1.4.4 + libmatroska v1.7.1
Video
ID: 1
Format: AVC
Format/Info: Advanced Video Codec
Format profile: High@L4
Format settings: CABAC / 4 Ref Frames
Format settings, CABAC: Yes
Format settings, ReFrames: 4 frames
Codec ID: V_MPEG4/ISO/AVC
Duration: 24 min 25 s
Bit rate: 5 000 kb/s
Width: 1 920 pixels
Height: 1 080 pixels
Display aspect ratio: 16:9
Frame rate mode: Constant
Frame rate: 25.000 FPS
Color space: YUV
Chroma subsampling: 4:2:0
Bit depth: 8 bits
Scan type: Progressive
Bits/(Pixel*Frame): 0.096
Stream size: 836 MiB (95%)
Writing library: x264 core 164
Encoding settings: cabac=1 / ref=2 / deblock=1:0:0 / analyse=0x3:0x113 / me=hex / subme=6 / psy=1 / psy_rd=1.00:0.00 / mixed_ref=1 / me_range=16 / chroma_me=1 / trellis=1 / 8x8dct=1 / cqm=0 / deadzone=21,11 / fast_pskip=1 / chroma_qp_offset=-2 / threads=12 / lookahead_threads=2 / sliced_threads=0 / nr=0 / decimate=1 / interlaced=0 / bluray_compat=0 / constrained_intra=0 / bframes=3 / b_pyramid=2 / b_adapt=1 / b_bias=0 / direct=1 / weightb=1 / open_gop=0 / weightp=1 / keyint=250 / keyint_min=25 / scenecut=40 / intra_refresh=0 / rc_lookahead=30 / rc=cbr / mbtree=1 / bitrate=5000 / ratetol=1.0 / qcomp=0.60 / qpmin=0 / qpmax=69 / qpstep=4 / vbv_maxrate=5000 / vbv_bufsize=6500 / nal_hrd=none / filler=0 / ip_ratio=1.40 / aq=1:1.00
Language: Russian
Default: Yes
Forced: No
Color range: Limited
Color primaries: BT.709
Transfer characteristics: BT.709
Matrix coefficients: BT.709
Audio
ID: 2
Format: AC-3
Format/Info: Audio Coding 3
Codec ID: A_AC3
Duration: 24 min 25 s
Bit rate mode: Constant
Bit rate: 256 kb/s
Channel(s): 2 channels
Channel positions: Front: L R
Sampling rate: 48.0 kHz
Frame rate: 31.250 FPS (1536 SPF)
Bit depth: 16 bits
Compression mode: Lossy
Delay relative to video: -80 ms
Stream size: 44.7 MiB (5%)
Language: Russian
Service kind: Complete Main
Default: Yes
Forced: No
Text #1
ID: 3
Format: UTF-8
Codec ID: S_TEXT/UTF8
Codec ID/Info: UTF-8 Plain Text
Duration: 25 min 56 s
Bit rate: 91 b/s
Count of elements: 349
Stream size: 17.3 KiB (0%)
Language: Russian
Default: No
Forced: No

Показать сообщения

Вы не можете начинать темы
Вы не можете отвечать на сообщения
Вы не можете редактировать свои сообщения
Вы не можете удалять свои сообщения
Вы не можете голосовать в опросах
Вы не можете прикреплять файлы к сообщениям
Вы не можете скачивать файлы

Текущее время: 12-Июн 17:56

Часовой пояс: UTC ± 0

Пользовательское соглашение Для правообладателей Реклама на сайте Top.Mail.Ru