Подождите, идет загрузка сайта ...
65
Информация о сериале
Оригинальное название: Сёстры
Год выпуска: 2023
Жанр: Комедия, мелодрама
Режиссер: Илья Силаев--В ролях: Ангелина Миримская, Анна Котова (II), Ангелина Стречина, Антон Филипенко, Александр Обласов, Николай Шрайбер, Артём Ткаченко, Янина Студилина, Мария Лобанова, Георгий Дронов, Анна Шепелева, Максим Костромыкин, Елена Грук-Чернова, Сергей Погосян, Вадим Ракитин--О сериале: Сестры Маша, Ира и Оля продолжают руководить автосервисом, доставшимся им в наследство от отца. Разруливая проблемы, которые бесконечно подбрасывает им коллектив автомехаников, девушки пытаются наладить личную жизнь. Ира поглощена романтическими отношениями с Ильей, когда в город внезапно возвращается его бывшая жена. Маша, расставшись с мужем, пытается найти себя и новую любовь, а Оле предстоит сделать выбор между Игорем и неожиданными чувствами к другому человеку.--pic pic
Страна: Россия
Студия: Кинокомпания "START Studio"
Продолжительность: ~ 00:24:00--Файл
Формат: AVI
Качество: WEBRip
Видео: XviD, ~ 1650 Кбит/с, 720x304
Аудио: AC3, 2 ch, 256 Кбит/с
Язык: Русский
Cубтитры: Русские - отдельно--
General
Complete name: W:\Sestry.S02.2023.WEB-DLRip.DenSBK\Sestry.S02.E01.2023.WEB-DLRip.DenSBK.avi
Format: AVI
Format/Info: Audio Video Interleave
File size: 335 MiB
Duration: 24 min 25 s
Overall bit rate: 1 915 kb/s
Writing application: VirtualDubMod 1.5.10.3 | www.virtualdub-fr.org || (build 2550/release)
Writing library: VirtualDubMod build 2550/release
Video
ID: 0
Format: MPEG-4 Visual
Format profile: Advanced Simple@L5
Format settings: BVOP1 / Custom Matrix
Format settings, BVOP: 1
Format settings, QPel: No
Format settings, GMC: No warppoints
Format settings, Matrix: Custom
Codec ID: XVID
Codec ID/Hint: XviD
Duration: 24 min 25 s
Bit rate: 1 650 kb/s
Width: 720 pixels
Height: 304 pixels
Display aspect ratio: 2.35:1
Frame rate: 25.000 FPS
Color space: YUV
Chroma subsampling: 4:2:0
Bit depth: 8 bits
Scan type: Progressive
Compression mode: Lossy
Bits/(Pixel*Frame): 0.301
Stream size: 288 MiB (86%)
Writing library: XviD 73
Audio
ID: 1
Format: AC-3
Format/Info: Audio Coding 3
Codec ID: 2000
Duration: 24 min 25 s
Bit rate mode: Constant
Bit rate: 256 kb/s
Channel(s): 2 channels
Channel positions: Front: L R
Sampling rate: 48.0 kHz
Frame rate: 31.250 FPS (1536 SPF)
Bit depth: 16 bits
Compression mode: Lossy
Stream size: 44.7 MiB (13%)
Alignment: Split accross interleaves
Interleave, duration: 40 ms (1.00 video frame)
Interleave, preload duratio: 500 ms
Service kind: Complete Main

Показать сообщения

Вы не можете начинать темы
Вы не можете отвечать на сообщения
Вы не можете редактировать свои сообщения
Вы не можете удалять свои сообщения
Вы не можете голосовать в опросах
Вы не можете прикреплять файлы к сообщениям
Вы не можете скачивать файлы

Текущее время: 16-Июн 15:08

Часовой пояс: UTC ± 0

Пользовательское соглашение Для правообладателей Реклама на сайте Top.Mail.Ru