Подождите, идет загрузка сайта ...
65
Информация о сериале
Оригинальное название: Сёстры
Год выпуска: 2023
Жанр: Комедия, мелодрама
Режиссер: Илья Силаев--В ролях: Ангелина Миримская, Анна Котова (II), Ангелина Стречина, Антон Филипенко, Александр Обласов, Николай Шрайбер, Артём Ткаченко, Янина Студилина, Мария Лобанова, Георгий Дронов, Анна Шепелева, Максим Костромыкин, Елена Грук-Чернова, Сергей Погосян, Вадим Ракитин--О сериале: Сестры Маша, Ира и Оля продолжают руководить автосервисом, доставшимся им в наследство от отца. Разруливая проблемы, которые бесконечно подбрасывает им коллектив автомехаников, девушки пытаются наладить личную жизнь. Ира поглощена романтическими отношениями с Ильей, когда в город внезапно возвращается его бывшая жена. Маша, расставшись с мужем, пытается найти себя и новую любовь, а Оле предстоит сделать выбор между Игорем и неожиданными чувствами к другому человеку.--pic pic
Страна: Россия
Студия: Кинокомпания "START Studio"
Продолжительность: ~ 00:24:00--Файл
Формат: MKV
Качество: WEBRip 2160p | 4K | SDR
Видео: MPEG-4 AVC, ~ 20 Мбит/с, 3840x2160, 8 бит
Аудио: AC3, 2 ch, 256 Кбит/с
Язык: Русский
Cубтитры: Русские--
Общее
Уникальный идентификатор: 77797789540076688035128179759062730161 (0x3A874F2AE47829FB98CF41146B0045B1)
Полное имя: D:\Sestry.S02.2023.WEB-DL.2160p.DenSBK\Sestry.S02.E01.2023.WEB-DL.2160p.DenSBK.mkv
Формат: Matroska
Версия формата: Version 4
Размер файла: 3,36 Гбайт
Продолжительность: 24 м. 25 с.
Общий поток: 19,7 Мбит/сек
Частота кадров: 25,000 кадров/сек
Дата кодирования: 2023-12-26 05:30:09 UTC
Программа кодирования: mkvmerge v81.0 ('Milliontown') 64-bit
Библиотека кодирования: libebml v1.4.4 + libmatroska v1.7.1
Видео
Идентификатор: 1
Формат: AVC
Формат/Информация: Advanced Video Codec
Профиль формата: [email protected]
Настройки формата: CABAC / 4 Ref Frames
Параметр CABAC формата: Да
Параметр RefFrames формата: 4 кадра
Идентификатор кодека: V_MPEG4/ISO/AVC
Продолжительность: 24 м. 25 с.
Битрейт: 20,0 Мбит/сек
Ширина: 3 840 пикселей
Высота: 2 160 пикселей
Соотношение сторон: 16:9
Режим частоты кадров: Постоянный
Частота кадров: 25,000 кадров/сек
Цветовое пространство: YUV
Субдискретизация насыщенности: 4:2:0
Битовая глубина: 8 бит
Тип развёртки: Прогрессивная
Бит/(Пиксели*Кадры): 0.096
Размер потока: 3,31 Гбайт (99%)
Библиотека кодирования: x264 core 164
Настройки программы: cabac=1 / ref=2 / deblock=1:0:0 / analyse=0x3:0x113 / me=hex / subme=6 / psy=1 / psy_rd=1.00:0.00 / mixed_ref=1 / me_range=16 / chroma_me=1 / trellis=1 / 8x8dct=1 / cqm=0 / deadzone=21,11 / fast_pskip=1 / chroma_qp_offset=-2 / threads=12 / lookahead_threads=2 / sliced_threads=0 / nr=0 / decimate=1 / interlaced=0 / bluray_compat=0 / constrained_intra=0 / bframes=3 / b_pyramid=2 / b_adapt=1 / b_bias=0 / direct=1 / weightb=1 / open_gop=0 / weightp=1 / keyint=250 / keyint_min=25 / scenecut=40 / intra_refresh=0 / rc_lookahead=30 / rc=cbr / mbtree=1 / bitrate=20000 / ratetol=1.0 / qcomp=0.60 / qpmin=0 / qpmax=69 / qpstep=4 / vbv_maxrate=20000 / vbv_bufsize=26000 / nal_hrd=none / filler=0 / ip_ratio=1.40 / aq=1:1.00
Язык: Russian
Default: Да
Forced: Нет
Цветовой диапазон: Limited
Основные цвета: BT.709
Характеристики трансфера: BT.709
Коэффициенты матрицы: BT.709
Аудио
Идентификатор: 2
Формат: AC-3
Формат/Информация: Audio Coding 3
Коммерческое название: Dolby Digital
Идентификатор кодека: A_AC3
Продолжительность: 24 м. 25 с.
Вид битрейта: Постоянный
Битрейт: 256 Кбит/сек
Каналы: 2 канала
Channel layout: L R
Частота: 48,0 КГц
Частота кадров: 31,250 кадров/сек (1536 SPF)
Метод сжатия: С потерями
Размер потока: 44,7 Мбайт (1%)
Язык: Russian
Service kind: Complete Main
Default: Да
Forced: Нет
Текст
Идентификатор: 3
Формат: UTF-8
Идентификатор кодека: S_TEXT/UTF8
Идентификатор кодека/Информация: UTF-8 Plain Text
Продолжительность: 23 м. 18 с.
Битрейт: 106 бит/сек
Частота кадров: 0,221 кадр/сек
Count of elements: 309
Размер потока: 18,1 Кбайт (0%)
Язык: Russian
Default: Нет
Forced: Нет

Показать сообщения

Вы не можете начинать темы
Вы не можете отвечать на сообщения
Вы не можете редактировать свои сообщения
Вы не можете удалять свои сообщения
Вы не можете голосовать в опросах
Вы не можете прикреплять файлы к сообщениям
Вы не можете скачивать файлы

Текущее время: 22-Июн 20:04

Часовой пояс: UTC ± 0

Пользовательское соглашение Для правообладателей Реклама на сайте Top.Mail.Ru