Подождите, идет загрузка сайта ...
65
Информация о сериале
Оригинальное название: Прелесть / Гнать
Год выпуска: 2023
Жанр: Драма, криминал
Режиссер: Динар Гарипов--В ролях: Олег Меньшиков, Филипп Янковский, Фёдор Федотов (II), Елизавета Кононова, Максим Коновалов, Назар Сафонов, Вера Панфилова, Олег Васильков, Анатолий Горячев, Константин Мурзенко, Екатерина Стулова, Игорь Черневич, Полина Сапрыкина, Александра Дроздова--О сериале: 25-летний автоугонщик Цыган живет в провинциальном городе, центром которого является завод по переработке драгоценных металлов. 20 лет назад на этом заводе погиб его отец, якобы замешанный в хищении золотых слитков. Следствие спустило дело на тормозах, поэтому Цыган жаждет найти убийцу и отомстить за отца, которого он толком и не помнит. Когда в городе объявляется бывший директор завода и негласный хозяин города Леонид Максимович, необходимо объединить усилия, чтобы докопаться до правды и совершить правосудие - каждый понимает его по-разному.--pic picpic--Страна: Россия
Студия: Кинокомпания "Good Story Media", "PREMIER"
Продолжительность: ~ 00:46:00
Язык: Русский
Субтитры: Нет--Файл
Качество: WEBRip 1080p
Формат: MKV
Видео кодек: H.264
Аудио кодек: AC3
Видео: MPEG4 AVC Video, H264, 16:9, 1920x1072 (1920x816), 25 fps, ~4400 kbps, 0.086 bit/pixel
Аудио: AC3, 2 ch, 192 kbps, 16 bits, 48.0 KHz--
General
Unique ID : 306969939855085302130782119966928248401 (0xE6F0428A1357860C1B132722FF079E51)
Complete name : W:\Prelest.S01.WEB-DL.1080p\Prelest.S01.E01.WEB-DL.1080p.mkv
Format : Matroska
Format version : Version 4 / Version 2
File size : 1.50 GiB
Duration : 46 min 30 s
Overall bit rate mode : Variable
Overall bit rate : 4 611 kb/s
Encoded date : UTC 2024-01-18 03:37:20
Writing application : mkvmerge v43.0.0 ('The Quartermaster') 64-bit
Writing library : libebml v1.3.10 + libmatroska v1.5.2
Video
ID : 1
Format : AVC
Format/Info : Advanced Video Codec
Format profile : [email protected]
Format settings : CABAC / 4 Ref Frames
Format settings, CABAC : Yes
Format settings, ReFrames : 4 frames
Codec ID : V_MPEG4/ISO/AVC
Duration : 46 min 30 s
Bit rate mode : Variable
Bit rate : 4 417 kb/s
Maximum bit rate : 4 500 kb/s
Width : 1 920 pixels
Height : 1 072 pixels
Display aspect ratio : 16:9
Frame rate mode : Constant
Frame rate : 25.000 FPS
Color space : YUV
Chroma subsampling : 4:2:0
Bit depth : 8 bits
Scan type : Progressive
Bits/(Pixel*Frame) : 0.086
Stream size : 1.43 GiB (96%)
Language : English
Default : Yes
Forced : No
Color range : Limited
Color primaries : BT.709
Transfer characteristics : BT.709
Matrix coefficients : BT.709
Audio
ID : 2
Format : AC-3
Format/Info : Audio Coding 3
Codec ID : A_AC3
Duration : 46 min 30 s
Bit rate mode : Constant
Bit rate : 192 kb/s
Channel(s) : 2 channels
Channel positions : Front: L R
Sampling rate : 48.0 kHz
Frame rate : 31.250 FPS (1536 SPF)
Bit depth : 16 bits
Compression mode : Lossy
Stream size : 63.9 MiB (4%)
Language : Russian
Service kind : Complete Main
Default : Yes
Forced : No

Показать сообщения

Вы не можете начинать темы
Вы не можете отвечать на сообщения
Вы не можете редактировать свои сообщения
Вы не можете удалять свои сообщения
Вы не можете голосовать в опросах
Вы не можете прикреплять файлы к сообщениям
Вы не можете скачивать файлы

Текущее время: 23-Июн 07:42

Часовой пояс: UTC ± 0

Пользовательское соглашение Для правообладателей Реклама на сайте Top.Mail.Ru