Подождите, идет загрузка сайта ...
65
Последний наёмник / In the Land of Saints and Sinners- Год выхода: 2023
Страна: Ирландия
Студия: Facing East Entertainment, Jumpy Cow Pictures, London Town Films
Жанр: боевик, триллер, криминал
Продолжительность: 01:46:11
Перевод: Профессиональный (полное дублирование) | Paragraph Media |-Режиссер:
Роберт Лоренц-В ролях:
Лиам Нисон, Керри Кондон, Джек Глисон, Колм Мини, Киаран Хайндс, Десмонд Иствуд, Сара Грин, Нив Кьюсак, Конор Макнил, Шеймус О’Хара, Валентайн Олукога, Марк О’Ригэн, Лаура Хьюз, Энн Броган, Мишель Глисон-О фильме:
Легендарный наемный убийца Финбар решает, что он уже не так хорош и ему пора отойти от дел. Но однажды в город, где он залег на дно, наведывается банда и начинает беспредел. Финбару ничего не остается, как встать на сторону правосудия и снова взяться за оружие. И на этот раз он рискует не только собой, но и всеми, кто ему дорог.-pic pic-Качество: BDRip 1080p
Формат: MKV
Видео: MPEG-4 AVC, 1920x802, 10000 Kbit/s, 23.976 fps
Аудио #01: 48 kHz, AC3, 5.1, 448 Kbps | Дублированный | Paragraph Media | RUS |pic
Аудио #02: 48 kHz, E-AC3, 5.1, 448 Kbps | Дублированный | Paragraph Media | RUS |pic
Аудио #03: 48 kHz, AC3, 5.1, 640 Kbps | Оригинал | ENG |pic
Субтитры: Русские (Forced, full), английские-
pic pic pic pic pic
General
Unique ID : 274318879673139497014462552191327492804 (0xCE5FE4FBCF87D240C4464DBEDD3F5AC4)
Complete name : H:VideoHIn.the.Land.of.Saints.and.Sinners.2023.BDRip.1080p.seleZen.mkv
Format : Matroska
Format version : Version 4
File size : 8.55 GiB
Duration : 1 h 46 min
Overall bit rate : 11.5 Mb/s
Frame rate : 23.976 FPS
Movie name : In the Land of Saints and Sinners (2023) from seleZen
Encoded date : 2024-02-17 00:01:25 UTC
Writing application : mkvmerge v80.0 ('Roundabout') 64-bit
Writing library : libebml v1.4.4 + libmatroska v1.7.1
Video
ID : 1
Format : AVC
Format/Info : Advanced Video Codec
Format profile : [email protected]
Format settings : CABAC / 5 Ref Frames
Format settings, CABAC : Yes
Format settings, Reference : 5 frames
Codec ID : V_MPEG4/ISO/AVC
Duration : 1 h 46 min
Bit rate : 10 000 kb/s
Width : 1 920 pixels
Height : 802 pixels
Display aspect ratio : 2.39:1
Frame rate mode : Constant
Frame rate : 23.976 (24000/1001) FPS
Color space : YUV
Chroma subsampling : 4:2:0
Bit depth : 8 bits
Scan type : Progressive
Bits/(Pixel*Frame) : 0.271
Stream size : 7.41 GiB (87%)
Writing library : x264 core 164 r3164 seleZen
Encoding settings : cabac=1 / ref=5 / deblock=1:-2:-2 / analyse=0x3:0x133 / me=umh / subme=11 / psy=1 / psy_rd=1.04:0.03 / mixed_ref=1 / me_range=48 / chroma_me=1 / trellis=2 / 8x8dct=1 / cqm=0 / deadzone=21,11 / fast_pskip=0 / chroma_qp_offset=-3 / threads=25 / lookahead_threads=6 / sliced_threads=0 / nr=0 / decimate=0 / interlaced=0 / bluray_compat=0 / constrained_intra=0 / bframes=10 / b_pyramid=2 / b_adapt=2 / b_bias=0 / direct=3 / weightb=1 / open_gop=0 / weightp=2 / keyint=240 / keyint_min=23 / scenecut=40 / intra_refresh=0 / rc_lookahead=60 / rc=2pass / mbtree=0 / bitrate=10000 / ratetol=1.0 / qcomp=0.60 / qpmin=0 / qpmax=51 / qpstep=4 / cplxblur=20.0 / qblur=0.5 / vbv_maxrate=50000 / vbv_bufsize=62500 / nal_hrd=none / filler=0 / ip_ratio=1.40 / pb_ratio=1.30 / aq=3:0.80
Language : English
Default : Yes
Forced : No
Audio #1
ID : 2
Format : AC-3
Format/Info : Audio Coding 3
Commercial name : Dolby Digital
Codec ID : A_AC3
Duration : 1 h 46 min
Bit rate mode : Constant
Bit rate : 448 kb/s
Channel(s) : 6 channels
Channel layout : L R C LFE Ls Rs
Sampling rate : 48.0 kHz
Frame rate : 31.250 FPS (1536 SPF)
Compression mode : Lossy
Stream size : 340 MiB (4%)
Title : Dub
Language : Russian
Service kind : Complete Main
Default : Yes
Forced : No
Audio #2
ID : 3
Format : E-AC-3
Format/Info : Enhanced AC-3
Commercial name : Dolby Digital Plus
Codec ID : A_EAC3
Duration : 1 h 46 min
Bit rate mode : Constant
Bit rate : 448 kb/s
Channel(s) : 6 channels
Channel layout : L R C LFE Ls Rs
Sampling rate : 48.0 kHz
Frame rate : 31.250 FPS (1536 SPF)
Compression mode : Lossy
Stream size : 340 MiB (4%)
Title : Dub
Language : Russian
Service kind : Complete Main
Default : No
Forced : No
Audio #3
ID : 4
Format : AC-3
Format/Info : Audio Coding 3
Commercial name : Dolby Digital
Codec ID : A_AC3
Duration : 1 h 46 min
Bit rate mode : Constant
Bit rate : 640 kb/s
Channel(s) : 6 channels
Channel layout : L R C LFE Ls Rs
Sampling rate : 48.0 kHz
Frame rate : 31.250 FPS (1536 SPF)
Compression mode : Lossy
Stream size : 486 MiB (6%)
Title : Original
Language : English
Service kind : Complete Main
Default : No
Forced : No
Text #1
ID : 5
Format : UTF-8
Codec ID : S_TEXT/UTF8
Codec ID/Info : UTF-8 Plain Text
Duration : 1 h 5 min
Bit rate : 0 b/s
Frame rate : 0.002 FPS
Count of elements : 7
Stream size : 413 Bytes (0%)
Title : Forced
Language : Russian
Default : Yes
Forced : No
Text #2
ID : 6
Format : UTF-8
Codec ID : S_TEXT/UTF8
Codec ID/Info : UTF-8 Plain Text
Duration : 1 h 38 min
Bit rate : 67 b/s
Frame rate : 0.173 FPS
Count of elements : 1024
Stream size : 49.0 KiB (0%)
Title : Full
Language : Russian
Default : No
Forced : No
Text #3
ID : 7
Format : UTF-8
Codec ID : S_TEXT/UTF8
Codec ID/Info : UTF-8 Plain Text
Duration : 1 h 36 min
Bit rate : 47 b/s
Frame rate : 0.202 FPS
Count of elements : 1175
Stream size : 34.1 KiB (0%)
Title : Full
Language : English
Default : No
Forced : No
Text #4
ID : 8
Format : UTF-8
Codec ID : S_TEXT/UTF8
Codec ID/Info : UTF-8 Plain Text
Duration : 1 h 39 min
Bit rate : 58 b/s
Frame rate : 0.254 FPS
Count of elements : 1514
Stream size : 42.6 KiB (0%)
Title : SDH
Language : English
Default : No
Forced : No
Menu
00:00:00.000 : en:Chapter 01
00:11:32.650 : en:Chapter 02
00:32:55.390 : en:Chapter 03
00:49:43.021 : en:Chapter 04
01:04:58.311 : en:Chapter 05
01:22:16.431 : en:Chapter 06
01:39:26.126 : en:Chapter 07

Показать сообщения

Вы не можете начинать темы
Вы не можете отвечать на сообщения
Вы не можете редактировать свои сообщения
Вы не можете удалять свои сообщения
Вы не можете голосовать в опросах
Вы не можете прикреплять файлы к сообщениям
Вы не можете скачивать файлы

Текущее время: 23-Июл 11:53

Часовой пояс: UTC ± 0

Пользовательское соглашение Для правообладателей Реклама на сайте Top.Mail.Ru