Подождите, идет загрузка сайта ...
2
По законам военного времени: Враг за спиной- Год выпуска: 2024
Страна: Россия, Украина
Жанр: Военный, драма, история
Продолжительность: 8 х ~ 00:51:00
Сезоны / серии: 7 Сезон: 1-8 серии из 8
Перевод: Не требуется
Субтитры: Нет
Режиссер: Сергей Виноградов
В ролях: Екатерина Климова, Александр Панкратов-Чёрный, Максим Дрозд, Егор Абрамов, Елена Лагута, Самад Мансуров, Игорь Трошин, Дмитрий Лавров (III), Степан Абрамов, Роман Гайдамак, Ксения Борисова, Константин Юдаев, Сергей Иванюк, Владимир Воробьёв (III), Екатерина Мелькова-Качество: WEB-DLRip
Формат: AVI
Видео кодек: XviD
Аудио кодек: AC3
Видео: XviD, ~ 1489 Кбит/с, 720x400, 25 кадр/с
Аудио: AC3, 2 ch, 192 Кбит/с, 48,0 КГц, Русский-Описание: Приквел 4 сезона. Осень 1944 года. Территория освобожденной Литвы. Майор Елагина и старшина Федоренко едут за новым назначением в штаб Фронта. По пути на них нападают вооруженные люди. С трудом им удается добраться до ближайшего села, где расположился особый сводный батальон Красной Армии, которым командует старый друг Елагиной — подполковник Шилов. Он рассказывает, что напали на Елагину местные партизаны — так называемые «лесные братья», которые вместе с немецкими и литовскими диверсантами организовали на освобожденной территории вражеское подполье. Борьба с ними поручена Шилову, и он предлагает Елагиной присоединиться к его городской следственной группе. Майор Елагина и Федоренко остаются вместе с Шиловым. Он особо полагается на опыт майора в следственном деле и поручает ей решать самые трудные задачи в расследованиях. При этом по-дружески защищает и опекает ее от всего, что может помешать будущей встрече Елагиной с мужем и их общей Победе.
Общее
Полное имя                               : D:\ЗАГРУЗКИ\По законам военного времени.S07.2024.WEB-DLRip.Files-x\01. По законам военного времени.S07.2024.WEB-DLRip.Files-x.avi
Формат                                   : AVI
Формат/Информация                        : Audio Video Interleave
Настройки формата                        : BitmapInfoHeader / WaveFormatEx
Размер файла                             : 618 Мбайт
Продолжительность                        : 51 мин. 7 с.
Общий битрейт                            : 1 690 Кбит/сек
Частота кадров                           : 25,000 кадров/сек
Программа кодирования                    : VirtualDubMod 1.5.10.3 | (build 2550/release)
Библиотека кодирования                   : VirtualDubMod build 2550/release
Видео
Идентификатор                            : 0
Формат                                   : MPEG-4 Visual
Профиль формата                          : Advanced Simple@L5
Настройки формата                        : BVOP1 / Custom Matrix
Параметр BVOP формата                    : 1
Параметр QPel формата                    : Нет
Параметр GMC формата                     : Без точки перехода
Параметр Matrix формата                  : Выборочная
Идентификатор кодека                     : XVID
Идентификатор кодека/Подсказка           : XviD
Продолжительность                        : 51 мин. 7 с.
Битрейт                                  : 1 489 Кбит/сек
Ширина                                   : 720 пикселей
Высота                                   : 400 пикселей
Соотношение сторон дисплея               : 16:9
Частота кадров                           : 25,000 кадров/сек
Цветовое пространство                    : YUV
Цветовая субдискретизация                : 4:2:0
Битовая глубина                          : 8 бит
Тип развёртки                            : Прогрессивная
Метод сжатия                             : С потерями
Бит/(Пиксели*Кадры)                      : 0.207
Размер потока                            : 544 Мбайт (88%)
Библиотека кодирования                   : XviD 73
Аудио
Идентификатор                            : 1
Формат                                   : AC-3
Формат/Информация                        : Audio Coding 3
Коммерческое название                    : Dolby Digital
Идентификатор кодека                     : 2000
Продолжительность                        : 51 мин. 7 с.
Вид битрейта                             : Постоянный
Битрейт                                  : 192 Кбит/сек
Канал(-ы)                                : 2 канала
Расположение каналов                     : L R
Частота дискретизации                    : 48,0 КГц
Частота кадров                           : 31,250 кадров/сек (1536 SPF)
Метод сжатия                             : С потерями
Размер потока                            : 70,2 Мбайт (11%)
Выравнивание                             : Разделение по промежуткам
Чередование, продолжительность           : 40  мс. (1,00 видеокадр)
Чередование, продолжительность пред.загр : 500  мс.
Вид сервиса                              : Complete Main
Нормализация звука речи                  : -31 dB
dialnorm_Average                         : -31 dB
dialnorm_Minimum                         : -31 dB
dialnorm_Maximum                         : -31 dB

Показать сообщения

Вы не можете начинать темы
Вы не можете отвечать на сообщения
Вы не можете редактировать свои сообщения
Вы не можете удалять свои сообщения
Вы не можете голосовать в опросах
Вы не можете прикреплять файлы к сообщениям
Вы не можете скачивать файлы

Текущее время: 12-Июн 17:49

Часовой пояс: UTC ± 0

Пользовательское соглашение Для правообладателей Реклама на сайте Top.Mail.Ru