Подождите, идет загрузка сайта ...
2
По щучьему велению- Год выпуска: 2023
Страна: Россия
Жанр: Фэнтези, приключения, семейный
Продолжительность: 01:56:26
Перевод: Не требуется КиноПоиск HD
Субтитры: Русские
Режиссер: Александр Войтинский
В ролях: Никита Кологривый, Мила Ершова, Алина Алексеева, Юрий Колокольников, Роман Мадянов, Фёдор Лавров, Агриппина Стеклова, Сергей Бурунов, Тимофей Меренков, Валерия Рустамова-Качество: WEB-DL 1080p
Формат: MKV
Видео кодек: AVC
Аудио кодек: AC3, E-AC3
Видео: AVC, 1920 x 802, 5 120 Kbps, 24,000 fps
Аудио 1: AC3, 6 ch, 48 kHz, 448 kbps RUS
Аудио 2: E-AC3, 6 ch, 48 kHz, 448 kbps RUS-Описание: Если ты идешь на рыбалку — будь готов к тому, что вытянешь рыбу своей мечты, волшебную Щуку, которая может исполнить три любых твоих желания. Только Емеля спустил два желания на ветер, а третье решил приберечь. Поэтому, чтобы добиться руки царской дочери Анфисы, придется ему действовать без волшебной силы, самому. А помогать ему будет Щука, которая без своей шкурки предстает обычной девушкой Василисой. Вместе им предстоит найти скатерть-самобранку, встретиться с Котом Баюном, отправиться в мрачное царство Кощея и понять, что настоящее чудо — это быть с тем, кого любишь.
Общее
Уникальный идентификатор                 : 194060652682404153799204039229986519604 (0x91FEB8E248FF6BCDBAF6D4E9E2533A34)
Полное имя                               : D:\Po.schuchemu.veleniyu.2023.WEB-DL.1080p.ELEKTRI4KA.UNIONGANG.mkv
Формат                                   : Matroska
Версия формата                           : Version 4
Размер файла                             : 4,89 Гбайт
Продолжительность                        : 1 ч. 56 м.
Общий поток                              : 5994 Кбит/сек
Название фильма                          : Po.schuchemu.veleniyu.2023.WEB-DL.1080p.ELEKTRI4KA.UNIONGANG.
Дата кодирования                         : UTC 2023-12-27 22:01:41
Программа кодирования                    : mkvmerge v8.3.0 ('Over the Horizon') 64bit
Библиотека кодирования                   : libebml v1.3.1 + libmatroska v1.4.2
Видео
Идентификатор                            : 1
Формат                                   : AVC
Формат/Информация                        : Advanced Video Codec
Профиль формата                          : High@L4
Настройки формата                        : CABAC / 4 Ref Frames
Параметр CABAC формата                   : Да
Параметр RefFrames формата               : 4 кадра
Идентификатор кодека                     : V_MPEG4/ISO/AVC
Продолжительность                        : 1 ч. 56 м.
Битрейт                                  : 5120 Кбит/сек
Ширина                                   : 1920 пикселей
Высота                                   : 802 пикселя
Соотношение сторон                       : 2,40:1
Режим частоты кадров                     : Постоянный
Частота кадров                           : 24,000 кадра/сек
Цветовое пространство                    : YUV
Субдискретизация насыщенности            : 4:2:0
Битовая глубина                          : 8 бит
Тип развёртки                            : Прогрессивная
Бит/(Пиксели*Кадры)                      : 0.139
Размер потока                            : 4,07 Гбайт (83%)
Библиотека кодирования                   : x264 core 152 r2854 e9a5903
Настройки программы                      : cabac=1 / ref=3 / deblock=1:0:0 / analyse=0x3:0x113 / me=hex / subme=7 / psy=1 / psy_rd=1.00:0.00 / mixed_ref=1 / me_range=16 / chroma_me=1 / trellis=1 / 8x8dct=1 / cqm=0 / deadzone=21,11 / fast_pskip=1 / chroma_qp_offset=-2 / threads=24 / lookahead_threads=4 / sliced_threads=0 / nr=0 / decimate=1 / interlaced=0 / bluray_compat=0 / constrained_intra=0 / bframes=6 / b_pyramid=2 / b_adapt=1 / b_bias=0 / direct=1 / weightb=1 / open_gop=0 / weightp=2 / keyint=48 / keyint_min=25 / scenecut=0 / intra_refresh=0 / rc_lookahead=40 / rc=2pass / mbtree=1 / bitrate=5120 / ratetol=1.0 / qcomp=0.60 / qpmin=0 / qpmax=69 / qpstep=4 / cplxblur=20.0 / qblur=0.5 / vbv_maxrate=7680 / vbv_bufsize=20480 / nal_hrd=none / filler=0 / ip_ratio=1.40 / aq=1:1.00
Default                                  : Да
Forced                                   : Нет
Аудио #1
Идентификатор                            : 2
Формат                                   : AC-3
Формат/Информация                        : Audio Coding 3
Коммерческое название                    : Dolby Digital
Идентификатор кодека                     : A_AC3
Продолжительность                        : 1 ч. 56 м.
Вид битрейта                             : Постоянный
Битрейт                                  : 448 Кбит/сек
Каналы                                   : 6 каналов
ChannelLayout                            : L R C LFE Ls Rs
Частота                                  : 48,0 КГц
Частота кадров                           : 31,250 кадров/сек (1536 SPF)
Битовая глубина                          : 16 бит
Метод сжатия                             : С потерями
Размер потока                            : 375 Мбайт (7%)
Заголовок                                : Original AC3 (KP HD)
Язык                                     : Russian
ServiceKind/String                       : Complete Main
Default                                  : Да
Forced                                   : Да
Аудио #2
Идентификатор                            : 3
Формат                                   : E-AC-3
Формат/Информация                        : Enhanced AC-3
Коммерческое название                    : Dolby Digital Plus
Идентификатор кодека                     : A_EAC3
Продолжительность                        : 1 ч. 56 м.
Вид битрейта                             : Постоянный
Битрейт                                  : 448 Кбит/сек
Каналы                                   : 6 каналов
ChannelLayout                            : L R C LFE Ls Rs
Частота                                  : 48,0 КГц
Частота кадров                           : 31,250 кадров/сек (1536 SPF)
Метод сжатия                             : С потерями
Размер потока                            : 375 Мбайт (7%)
Заголовок                                : Original EAC3 (KP HD)
Язык                                     : Russian
ServiceKind/String                       : Complete Main
Default                                  : Нет
Forced                                   : Нет
Текст
Идентификатор                            : 4
Формат                                   : UTF-8
Идентификатор кодека                     : S_TEXT/UTF8
Идентификатор кодека/Информация          : UTF-8 Plain Text
Заголовок                                : Full (Al)
Язык                                     : Russian
Default                                  : Нет
Forced                                   : Нет

Показать сообщения

Вы не можете начинать темы
Вы не можете отвечать на сообщения
Вы не можете редактировать свои сообщения
Вы не можете удалять свои сообщения
Вы не можете голосовать в опросах
Вы не можете прикреплять файлы к сообщениям
Вы не можете скачивать файлы

Текущее время: 20-Июн 23:18

Часовой пояс: UTC ± 0

Пользовательское соглашение Для правообладателей Реклама на сайте Top.Mail.Ru