Подождите, идет загрузка сайта ...
2
Планета обезьян: Новое царство / Kingdom of the Planet of the Apes- Год выпуска: 2024
Страна: США, Австралия
Жанр: Фантастика, боевик, приключения
Продолжительность: 02:24:35
Перевод: Дублированный (MovieDalen)
Субтитры: Русские (Forced - hardsab)
Режиссер: Уэс Болл
В ролях: Оуэн Тиг, Питер Макон, Фрейя Аллан, Кевин Дюран, Трэвис Джеффри, Уильям Х. Мэйси, Дичен Лакмэн, Ика Дэрвилл, Лидия Пекхэм, Нил Сэндилэндс-Качество: TS-AVC
Формат: MKV
Видео кодек: AVC
Аудио кодек: AC3
Видео: AVC/H.264, 7059 Кбит/с, 1920x804, 24,000 кадра/сек
Аудио: AC3, 6 ch, 448 Kbps, 48,0 КГц, Русский-Описание: Несколько поколений после правления Цезаря. Обезьяны являются доминирующим видом, живущим в гармонии, а люди вынуждены оставаться в тени. Пока новый тиранический лидер обезьян строит свою империю, один молодой шимпанзе отправляется в путешествие, которое заставит его усомниться во всём, что он знал о прошлом, и сделать выбор, который определит будущее как обезьян, так и людей.
Общее
Уникальный идентификатор                 : 232935838712459602248042182114806186580 (0xAF3DCF895CAD9751AFB60A090905C254)
Полное имя                               : D:\РАЗДАЧИ\Планета.обезьян.Новое.царство.2024.WEBRip.[1080p].NNMClub.mkv
Формат                                   : Matroska
Версия формата                           : Version 4
Размер файла                             : 7,58 Гбайт
Продолжительность                        : 2 ч. 24 мин.
Общий битрейт                            : 7 509 Кбит/сек
Частота кадров                           : 24,000 кадра/сек
Название фильма                          : Планета.обезьян.Новое.царство.2024.WEBRip.[1080p].NNMClub
Дата кодирования                         : 2024-05-23 05:58:05 UTC
Программа кодирования                    : mkvmerge v8.3.0 ('Over the Horizon') 64bit
Библиотека кодирования                   : libebml v1.3.1 + libmatroska v1.4.2
Видео
Идентификатор                            : 1
Формат                                   : AVC
Формат/Информация                        : Advanced Video Codec
Профиль формата                          : High@L4
Настройки формата                        : CABAC / 1 Ref Frames
Параметр CABAC формата                   : Да
Параметр RefFrames формата               : 1 кадр
Параметр GOP формата                     : N=1
Идентификатор кодека                     : V_MPEG4/ISO/AVC
Продолжительность                        : 2 ч. 24 мин.
Битрейт                                  : 7 059 Кбит/сек
Ширина                                   : 1 920 пикселей
Высота                                   : 804 пикселя
Соотношение сторон дисплея               : 2,39:1
Режим частоты кадров                     : Постоянный
Частота кадров                           : 24,000 кадра/сек
Цветовое пространство                    : YUV
Цветовая субдискретизация                : 4:2:0
Битовая глубина                          : 8 бит
Тип развёртки                            : Прогрессивная
Бит/(Пиксели*Кадры)                      : 0.191
Размер потока                            : 7,13 Гбайт (94%)
Библиотека кодирования                   : x264 core 158 r2984 3759fcb
Параметры библиотеки кодирования         : cabac=1 / ref=1 / deblock=1:0:0 / analyse=0x3:0x113 / me=hex / subme=2 / psy=1 / psy_rd=1.00:0.00 / mixed_ref=0 / me_range=16 / chroma_me=1 / trellis=0 / 8x8dct=1 / cqm=0 / deadzone=21,11 / fast_pskip=1 / chroma_qp_offset=0 / threads=6 / lookahead_threads=2 / sliced_threads=0 / nr=0 / decimate=1 / interlaced=0 / bluray_compat=0 / constrained_intra=0 / bframes=0 / weightp=1 / keyint=24 / keyint_min=2 / scenecut=40 / intra_refresh=0 / rc_lookahead=10 / rc=crf / mbtree=1 / crf=22.0 / qcomp=0.60 / qpmin=22 / qpmax=22 / qpstep=4 / ip_ratio=1.40 / aq=1:1.00
Язык                                     : Английский
По умолчанию                             : Да
Принудительно                            : Нет
Аудио
Идентификатор                            : 2
Формат                                   : AC-3
Формат/Информация                        : Audio Coding 3
Коммерческое название                    : Dolby Digital
Идентификатор кодека                     : A_AC3
Продолжительность                        : 2 ч. 24 мин.
Вид битрейта                             : Постоянный
Битрейт                                  : 448 Кбит/сек
Канал(-ы)                                : 6 каналов
Расположение каналов                     : L R C LFE Ls Rs
Частота дискретизации                    : 48,0 КГц
Частота кадров                           : 31,250 кадров/сек (1536 SPF)
Метод сжатия                             : С потерями
Задержка видео                           : -5 мс.
Размер потока                            : 463 Мбайт (6%)
Язык                                     : Русский
Вид сервиса                              : Complete Main
По умолчанию                             : Да
Принудительно                            : Нет
Нормализация звука речи                  : -31 dB
cmixlev                                  : -4.5 dB
surmixlev                                : -6 dB
dialnorm_Average                         : -31 dB
dialnorm_Minimum                         : -31 dB
dialnorm_Maximum                         : -31 dB

Показать сообщения

Вы не можете начинать темы
Вы не можете отвечать на сообщения
Вы не можете редактировать свои сообщения
Вы не можете удалять свои сообщения
Вы не можете голосовать в опросах
Вы не можете прикреплять файлы к сообщениям
Вы не можете скачивать файлы

Текущее время: 22-Июн 18:34

Часовой пояс: UTC ± 0

Пользовательское соглашение Для правообладателей Реклама на сайте Top.Mail.Ru