Подождите, идет загрузка сайта ...
2
Пацаны | The Boys- Год выпуска: 2024
Страна: США
Жанр: Фантастика, боевик, комедия, криминал
Продолжительность: 01:05:00
Сезоны / серии: Сезон: 4 / Серии: 1-5 из 8
Перевод:
Профессиональный (многоголосый закадровый) | HDRezka Studio | 1-5 серия
Профессиональный (многоголосый закадровый) | Jaskier | 1-3 серия
Профессиональный (многоголосый закадровый) | TVShows | 1-4 серия
Профессиональный (многоголосый закадровый) | LostFilm | 1-4 серия
Профессиональный (двухголосый закадровый) | Кубик в Кубе | 1-4 серия
Дублированный (неофициальный) | Red Head Sound | 1-4 серия
Субтитры: Русские (Forced, Full |Amazon Prime|), Английские (Forced, Full, SDH), Украинские, Иврит
В ролях: Карл Урбан, Джек Куэйд, Энтони Старр, Эрин Мориарти, Джесси Ашер, Лаз Алонсо, Чейс Кроуфорд, Томер Капон, Карен Фукухара, Нэйтан Митчелл
Режиссёр: Филип Сгриккиа, Джулиан Холмс-Качество: WEB-DL 1080p
Формат: MKV
Видео кодек: AVC
Аудио кодек: AC3, E-AC3
Видео: AVC, 1920x800, 23,976 кадра/сек, 7882 Кбит/сек
Аудио Rus: AC3, 48,0 kHz, 2 ch, 384 Кбит/сек | HDRezka Studio 18+
Аудио Rus: AC3, 48 kHz, 3/2, 384 Кбит/сек | Jaskier 18+
Аудио Rus: AC3, 48 kHz, 3/2, 384 Кбит/сек | TVShows
Аудио Rus: AC3, 48,0 kHz, 2 ch, 384 Кбит/сек | LostFilm
Аудио Rus: AC3, 48,0 kHz, 2 ch, 384 Кбит/сек | Кубик в Кубе 18+
Аудио Rus: AC3, 48,0 kHz, 2 ch, 192 Кбит/сек | Red Head Sound 18+
Аудио Eng: E-AC3, 48 kHz, 3/2 (L R C LFE Ls Rs) ch, 640 Кбит/сек-Описание: Действие сериала разворачивается в мире, где существуют супергерои. Именно они являются настоящими звёздами. Их все знают и обожают. Но за идеальным фасадом скрывается гораздо более мрачный мир наркотиков и секса, а большинство героев — в жизни не самые приятные люди. Для контроля за супергероями ЦРУ создаёт специальный отряд, неофициально известный как «Пацаны», суровые члены которого всегда готовы поставить зазнавшегося героя на место самым жестоким способом.
Общее
Уникальный идентификатор                 : 54375513330048192313804472707285750642 (0x28E857CAADAA95DDB9382C3A5E879372)
Полное имя                               : E:\The.Boys.S04E01.1080p.WEB-DL.RGzsRutracker.mkv
Формат                                   : Matroska
Версия формата                           : Version 4
Размер файла                             : 4,84 Гбайт
Продолжительность                        : 1 ч. 5 мин.
Общий битрейт                            : 10,6 Мбит/сек
Частота кадров                           : 23,976 кадра/сек
Название фильма                          : The Boys 04x01 - Release by Wentworth_Miller
Дата кодирования                         : 2024-06-20 08:36:42 UTC
Программа кодирования                    : mkvmerge v84.0 ('Sleeper') 64-bit
Библиотека кодирования                   : libebml v1.4.5 + libmatroska v1.7.1
Обложка                                  : Yes
Attachments                              : cover10.png
Видео
Идентификатор                            : 1
Формат                                   : AVC
Формат/Информация                        : Advanced Video Codec
Профиль формата                          : High@L4
Настройки формата                        : CABAC / 4 Ref Frames
Параметр CABAC формата                   : Да
Параметр RefFrames формата               : 4 кадра
Идентификатор кодека                     : V_MPEG4/ISO/AVC
Продолжительность                        : 1 ч. 5 мин.
Вид битрейта                             : Постоянный
Битрейт                                  : 7 882 Кбит/сек
Номинальный битрейт                      : 10 000 Кбит/сек
Ширина                                   : 1 920 пикселей
Высота                                   : 800 пикселей
Соотношение сторон дисплея               : 2,40:1
Режим частоты кадров                     : Постоянный
Частота кадров                           : 23,976 (24000/1001) кадра/сек
Цветовое пространство                    : YUV
Цветовая субдискретизация                : 4:2:0
Битовая глубина                          : 8 бит
Тип развёртки                            : Прогрессивная
Бит/(Пиксели*Кадры)                      : 0.214
Размер потока                            : 3,58 Гбайт (74%)
Заголовок                                : Department of Dirty Tricks
Язык                                     : Английский (US)
По умолчанию                             : Да
Принудительно                            : Нет
Цветовой диапазон                        : Limited
Основные цвета                           : BT.709
Характеристики трансфера                 : BT.709
Коэффициенты матрицы                     : BT.709
Аудио #1
Идентификатор                            : 2
Формат                                   : AC-3
Формат/Информация                        : Audio Coding 3
Коммерческое название                    : Dolby Digital
Идентификатор кодека                     : A_AC3
Продолжительность                        : 1 ч. 5 мин.
Вид битрейта                             : Постоянный
Битрейт                                  : 384 Кбит/сек
Канал(-ы)                                : 2 канала
Расположение каналов                     : L R
Частота дискретизации                    : 48,0 КГц
Частота кадров                           : 31,250 кадров/сек (1536 SPF)
Метод сжатия                             : С потерями
Размер потока                            : 179 Мбайт (4%)
Заголовок                                : HDRezka Studio 18+
Язык                                     : Русский
Вид сервиса                              : Complete Main
По умолчанию                             : Да
Принудительно                            : Нет
Нормализация звука речи                  : -23 dB
compr                                    : -0.28 dB
ltrtcmixlev                              : -3.0 dB
ltrtsurmixlev                            : -3.0 dB
lorocmixlev                              : -3.0 dB
lorosurmixlev                            : -3.0 dB
dialnorm_Average                         : -23 dB
dialnorm_Minimum                         : -23 dB
dialnorm_Maximum                         : -23 dB
Аудио #2
Идентификатор                            : 3
Формат                                   : AC-3
Формат/Информация                        : Audio Coding 3
Коммерческое название                    : Dolby Digital
Идентификатор кодека                     : A_AC3
Продолжительность                        : 1 ч. 5 мин.
Вид битрейта                             : Постоянный
Битрейт                                  : 384 Кбит/сек
Канал(-ы)                                : 6 каналов
Расположение каналов                     : L R C LFE Ls Rs
Частота дискретизации                    : 48,0 КГц
Частота кадров                           : 31,250 кадров/сек (1536 SPF)
Метод сжатия                             : С потерями
Размер потока                            : 179 Мбайт (4%)
Заголовок                                : Jaskier 18+
Язык                                     : Русский
Вид сервиса                              : Complete Main
По умолчанию                             : Нет
Принудительно                            : Нет
Нормализация звука речи                  : -20 dB
compr                                    : -0.28 dB
cmixlev                                  : -3.0 dB
surmixlev                                : -3 dB
dmixmod                                  : Lo/Ro
ltrtcmixlev                              : -3.0 dB
ltrtsurmixlev                            : -3.0 dB
lorocmixlev                              : -3.0 dB
lorosurmixlev                            : -3.0 dB
dialnorm_Average                         : -20 dB
dialnorm_Minimum                         : -20 dB
dialnorm_Maximum                         : -20 dB
Аудио #3
Идентификатор                            : 4
Формат                                   : AC-3
Формат/Информация                        : Audio Coding 3
Коммерческое название                    : Dolby Digital
Идентификатор кодека                     : A_AC3
Продолжительность                        : 1 ч. 5 мин.
Вид битрейта                             : Постоянный
Битрейт                                  : 384 Кбит/сек
Канал(-ы)                                : 6 каналов
Расположение каналов                     : L R C LFE Ls Rs
Частота дискретизации                    : 48,0 КГц
Частота кадров                           : 31,250 кадров/сек (1536 SPF)
Метод сжатия                             : С потерями
Размер потока                            : 179 Мбайт (4%)
Заголовок                                : TVShows
Язык                                     : Русский
Вид сервиса                              : Complete Main
По умолчанию                             : Нет
Принудительно                            : Нет
Нормализация звука речи                  : -19 dB
compr                                    : -0.28 dB
cmixlev                                  : -3.0 dB
surmixlev                                : -3 dB
dmixmod                                  : Lo/Ro
ltrtcmixlev                              : -3.0 dB
ltrtsurmixlev                            : -3.0 dB
lorocmixlev                              : -3.0 dB
lorosurmixlev                            : -3.0 dB
dialnorm_Average                         : -19 dB
dialnorm_Minimum                         : -19 dB
dialnorm_Maximum                         : -19 dB
Аудио #4
Идентификатор                            : 5
Формат                                   : AC-3
Формат/Информация                        : Audio Coding 3
Коммерческое название                    : Dolby Digital
Идентификатор кодека                     : A_AC3
Продолжительность                        : 1 ч. 5 мин.
Вид битрейта                             : Постоянный
Битрейт                                  : 384 Кбит/сек
Канал(-ы)                                : 2 канала
Расположение каналов                     : L R
Частота дискретизации                    : 48,0 КГц
Частота кадров                           : 31,250 кадров/сек (1536 SPF)
Метод сжатия                             : С потерями
Размер потока                            : 179 Мбайт (4%)
Заголовок                                : LostFilm
Язык                                     : Русский
Вид сервиса                              : Complete Main
По умолчанию                             : Нет
Принудительно                            : Нет
Нормализация звука речи                  : -31 dB
dialnorm_Average                         : -31 dB
dialnorm_Minimum                         : -31 dB
dialnorm_Maximum                         : -31 dB
Аудио #5
Идентификатор                            : 6
Формат                                   : AC-3
Формат/Информация                        : Audio Coding 3
Коммерческое название                    : Dolby Digital
Идентификатор кодека                     : A_AC3
Продолжительность                        : 1 ч. 5 мин.
Вид битрейта                             : Постоянный
Битрейт                                  : 384 Кбит/сек
Канал(-ы)                                : 2 канала
Расположение каналов                     : L R
Частота дискретизации                    : 48,0 КГц
Частота кадров                           : 31,250 кадров/сек (1536 SPF)
Метод сжатия                             : С потерями
Размер потока                            : 179 Мбайт (4%)
Заголовок                                : Кубик в Кубе 18+
Язык                                     : Русский
Вид сервиса                              : Complete Main
По умолчанию                             : Нет
Принудительно                            : Нет
Нормализация звука речи                  : -22 dB
compr                                    : -0.28 dB
ltrtcmixlev                              : -3.0 dB
ltrtsurmixlev                            : -3.0 dB
lorocmixlev                              : -3.0 dB
lorosurmixlev                            : -3.0 dB
dialnorm_Average                         : -22 dB
dialnorm_Minimum                         : -22 dB
dialnorm_Maximum                         : -22 dB
Аудио #6
Идентификатор                            : 7
Формат                                   : AC-3
Формат/Информация                        : Audio Coding 3
Коммерческое название                    : Dolby Digital
Идентификатор кодека                     : A_AC3
Продолжительность                        : 1 ч. 5 мин.
Вид битрейта                             : Постоянный
Битрейт                                  : 192 Кбит/сек
Канал(-ы)                                : 2 канала
Расположение каналов                     : L R
Частота дискретизации                    : 48,0 КГц
Частота кадров                           : 31,250 кадров/сек (1536 SPF)
Метод сжатия                             : С потерями
Размер потока                            : 89,4 Мбайт (2%)
Заголовок                                : Red Head Sound 18+
Язык                                     : Русский
Вид сервиса                              : Complete Main
По умолчанию                             : Нет
Принудительно                            : Нет
Нормализация звука речи                  : -26 dB
compr                                    : -0.28 dB
ltrtcmixlev                              : -3.0 dB
ltrtsurmixlev                            : -3.0 dB
lorocmixlev                              : -3.0 dB
lorosurmixlev                            : -3.0 dB
dialnorm_Average                         : -26 dB
dialnorm_Minimum                         : -26 dB
dialnorm_Maximum                         : -26 dB
Аудио #7
Идентификатор                            : 8
Формат                                   : E-AC-3
Формат/Информация                        : Enhanced AC-3
Коммерческое название                    : Dolby Digital Plus
Идентификатор кодека                     : A_EAC3
Продолжительность                        : 1 ч. 5 мин.
Вид битрейта                             : Постоянный
Битрейт                                  : 640 Кбит/сек
Канал(-ы)                                : 6 каналов
Расположение каналов                     : L R C LFE Ls Rs
Частота дискретизации                    : 48,0 КГц
Частота кадров                           : 31,250 кадров/сек (1536 SPF)
Метод сжатия                             : С потерями
Размер потока                            : 298 Мбайт (6%)
Язык                                     : Английский (US)
Вид сервиса                              : Complete Main
По умолчанию                             : Нет
Принудительно                            : Нет
Нормализация звука речи                  : -31 dB
compr                                    : -0.28 dB
dialnorm_Average                         : -31 dB
dialnorm_Minimum                         : -31 dB
dialnorm_Maximum                         : -31 dB
Текст #1
Идентификатор                            : 9
Формат                                   : UTF-8
Идентификатор кодека                     : S_TEXT/UTF8
Идентификатор кодека/Информация          : UTF-8 Plain Text
Продолжительность                        : 58 мин. 53 с.
Битрейт                                  : 4 бит/сек
Частота кадров                           : 0,012 кадр/сек
Число элементов                          : 42
Размер потока                            : 1,95 КиБ (0%)
Заголовок                                : Forced
Язык                                     : Русский
По умолчанию                             : Нет
Принудительно                            : Да
Текст #2
Идентификатор                            : 10
Формат                                   : UTF-8
Идентификатор кодека                     : S_TEXT/UTF8
Идентификатор кодека/Информация          : UTF-8 Plain Text
Продолжительность                        : 1 ч. 1 мин.
Битрейт                                  : 100 бит/сек
Частота кадров                           : 0,226 кадр/сек
Число элементов                          : 830
Размер потока                            : 45,3 КиБ (0%)
Язык                                     : Русский (RU)
По умолчанию                             : Нет
Принудительно                            : Нет
Текст #3
Идентификатор                            : 11
Формат                                   : UTF-8
Идентификатор кодека                     : S_TEXT/UTF8
Идентификатор кодека/Информация          : UTF-8 Plain Text
Продолжительность                        : 1 ч. 1 мин.
Битрейт                                  : 99 бит/сек
Частота кадров                           : 0,226 кадр/сек
Число элементов                          : 829
Размер потока                            : 44,6 КиБ (0%)
Заголовок                                : Ukraine
Язык                                     : Украинский (UA)
По умолчанию                             : Нет
Принудительно                            : Нет
Текст #4
Идентификатор                            : 12
Формат                                   : UTF-8
Идентификатор кодека                     : S_TEXT/UTF8
Идентификатор кодека/Информация          : UTF-8 Plain Text
Продолжительность                        : 14 мин. 51 с.
Битрейт                                  : 2 бит/сек
Частота кадров                           : 0,016 кадр/сек
Число элементов                          : 14
Размер потока                            : 295 байт (0%)
Заголовок                                : Forced
Язык                                     : Английский (US)
По умолчанию                             : Нет
Принудительно                            : Нет
Текст #5
Идентификатор                            : 13
Формат                                   : UTF-8
Идентификатор кодека                     : S_TEXT/UTF8
Идентификатор кодека/Информация          : UTF-8 Plain Text
Продолжительность                        : 1 ч. 1 мин.
Битрейт                                  : 69 бит/сек
Частота кадров                           : 0,242 кадр/сек
Число элементов                          : 888
Размер потока                            : 31,1 КиБ (0%)
Язык                                     : Английский (US)
По умолчанию                             : Нет
Принудительно                            : Нет
Текст #6
Идентификатор                            : 14
Формат                                   : UTF-8
Идентификатор кодека                     : S_TEXT/UTF8
Идентификатор кодека/Информация          : UTF-8 Plain Text
Продолжительность                        : 1 ч. 1 мин.
Битрейт                                  : 77 бит/сек
Частота кадров                           : 0,280 кадр/сек
Число элементов                          : 1027
Размер потока                            : 34,9 КиБ (0%)
Заголовок                                : SDH
Язык                                     : Английский (US)
По умолчанию                             : Нет
Принудительно                            : Нет
Текст #7
Идентификатор                            : 15
Формат                                   : UTF-8
Идентификатор кодека                     : S_TEXT/UTF8
Идентификатор кодека/Информация          : UTF-8 Plain Text
Продолжительность                        : 1 ч. 1 мин.
Битрейт                                  : 95 бит/сек
Частота кадров                           : 0,226 кадр/сек
Число элементов                          : 831
Размер потока                            : 42,9 КиБ (0%)
Язык                                     : Иврит (IL)
По умолчанию                             : Нет
Принудительно                            : Нет
Меню
00:00:00.000                             : en:Studio Logo
00:00:06.000                             : en:Previously On
00:01:52.000                             : en:Scene 1
00:02:52.000                             : en:Scene 2
00:03:51.000                             : en:Scene 3
00:04:47.000                             : en:Scene 4
00:05:19.000                             : en:Scene 5
00:06:59.000                             : en:Scene 6
00:07:33.000                             : en:Scene 7
00:08:43.000                             : en:Scene 8
00:09:50.000                             : en:Scene 9
00:10:53.000                             : en:Scene 10
00:11:26.000                             : en:Scene 11
00:12:04.000                             : en:Scene 12
00:12:47.000                             : en:Scene 13
00:13:02.000                             : en:Scene 14
00:13:04.000                             : en:Scene 15
00:13:54.000                             : en:Scene 16
00:16:29.000                             : en:Title Sequence
00:16:35.000                             : en:Scene 17
00:17:19.000                             : en:Scene 18
00:18:29.000                             : en:Scene 19
00:20:27.000                             : en:Scene 20
00:21:46.000                             : en:Scene 21
00:22:49.000                             : en:Scene 22
00:23:18.000                             : en:Scene 23
00:23:56.000                             : en:Scene 24
00:24:34.000                             : en:Scene 25
00:25:10.000                             : en:Scene 26
00:25:42.000                             : en:Scene 27
00:26:23.000                             : en:Scene 28
00:27:32.000                             : en:Scene 29
00:28:26.000                             : en:Scene 30
00:30:42.000                             : en:Scene 31
00:31:16.000                             : en:Scene 32
00:31:31.000                             : en:Scene 33
00:33:04.000                             : en:Scene 34
00:33:39.000                             : en:Scene 35
00:34:29.000                             : en:Scene 36
00:39:15.000                             : en:Scene 37
00:41:20.000                             : en:Scene 38
00:41:40.000                             : en:Scene 39
00:42:30.000                             : en:Scene 40
00:43:44.000                             : en:Scene 41
00:45:33.000                             : en:Scene 42
00:46:11.000                             : en:Scene 43
00:46:27.000                             : en:Scene 44
00:46:50.000                             : en:Scene 45
00:47:09.000                             : en:Scene 46
00:47:46.000                             : en:Scene 47
00:47:51.000                             : en:Scene 48
00:48:09.000                             : en:Scene 49
00:48:54.000                             : en:Scene 50
00:49:26.000                             : en:Scene 51
00:50:57.000                             : en:Scene 52
00:51:28.000                             : en:Scene 53
00:51:55.000                             : en:Scene 54
00:53:36.000                             : en:Scene 55
00:54:23.000                             : en:Scene 56
00:55:17.000                             : en:Scene 57
00:56:42.000                             : en:Scene 58
00:59:06.000                             : en:End Credits

Показать сообщения

Вы не можете начинать темы
Вы не можете отвечать на сообщения
Вы не можете редактировать свои сообщения
Вы не можете удалять свои сообщения
Вы не можете голосовать в опросах
Вы не можете прикреплять файлы к сообщениям
Вы не можете скачивать файлы

Текущее время: 15-Июл 05:09

Часовой пояс: UTC ± 0

Пользовательское соглашение Для правообладателей Реклама на сайте Top.Mail.Ru