Подождите, идет загрузка сайта ...
2
Пацан против всех / Boy Kills World- Год выпуска: 2023
Страна: Германия, ЮАР, США
Жанр: Боевик, комедия
Продолжительность: 01:50:42
Перевод: Профессиональный (многоголосый, закадровый) | HDRezka Studio
Субтитры: Русские (forced, full (stirlooo | 18+)), английские (forced, full, SDH)
Режиссер: Мориц Мор / Moritz Mohr
В ролях: Билл Скарсгард, Джессика Рот, Мишель Докери, Бретт Гельман, Яян Рухьян, Куинн Коуплэнд, Эндрю Кодзи, Айзейя Мустафа, Шарлто Копли, Фамке Янссен-Качество: WEB-DL 1080p
Формат: MKV
Видео кодек: AVC
Аудио кодек: AC3, E-AC3
Видео: MPEG-4 AVC, (2,40:1), 1920x800, 6817 Кбит/с, 23,976 fps
Аудио #1: 48 kHz, AC3 Dolby Digital, 2/0 (L,R) ch, ~ 192 kbps | RUS
Аудио #2: 48 kHz, E-AC3 Dolby Digital, 3/2 (L,C,R,l,r) + LFE ch, ~ 640 kbps | ENG-Описание: Будущее. Во время отбора жертв для ежегодно проводимого тв-шоу мать и сестру одного мальчика убивает глава правящей тиранической династии Хильда Ван Дер Кой, а сам он становится глухонемым. Парень сбегает в джунгли с одним желанием — отомстить. Здесь он встречает отшельника Шамана, который начинает обучать его боевым искусствам. Проходят годы, и теперь повзрослевший мститель готов действовать.
Общее
Уникальный идентификатор : 87227461315694249699651276946758960195 (0x419F65E17F817EAA69AB3D357BA40443)
Полное имя : D:TorrentsBoy.Kills.World.2023.1080p.AMZN_от New-Team.mkv
Формат : Matroska
Версия формата : Version 4
Размер файла : 5,92 Гбайт
Продолжительность : 1 ч. 50 м.
Общий поток : 7 651 Кбит/сек
Название фильма : Boy.Kills.World.2023.1080p.AMZN_от New-Team
Дата кодирования : UTC 2024-05-25 13:09:45
Программа кодирования : mkvmerge v79.0 ('Funeral Pyres') 64-bit
Библиотека кодирования : libebml v1.4.4 + libmatroska v1.7.1
Видео
Идентификатор : 1
Формат : AVC
Формат/Информация : Advanced Video Codec
Профиль формата : High@L4
Настройки формата : CABAC / 4 Ref Frames
Параметр CABAC формата : Да
Параметр RefFrames формата : 4 кадра
Идентификатор кодека : V_MPEG4/ISO/AVC
Продолжительность : 1 ч. 50 м.
Вид битрейта : Постоянный
Битрейт : 6 817 Кбит/сек
Номинальный битрейт : 10 000 Кбит/сек
Ширина : 1 920 пикселей
Высота : 800 пикселей
Соотношение сторон : 2,40:1
Режим частоты кадров : Постоянный
Частота кадров : 23,976 (24000/1001) кадра/сек
Цветовое пространство : YUV
Субдискретизация насыщенности : 4:2:0
Битовая глубина : 8 бит
Тип развёртки : Прогрессивная
Бит/(Пиксели*Кадры) : 0.185
Размер потока : 5,27 Гбайт (89%)
Default : Да
Forced : Нет
Цветовой диапазон : Limited
Основные цвета : BT.709
Характеристики трансфера : BT.709
Коэффициенты матрицы : BT.709
Аудио #1
Идентификатор : 2
Формат : AC-3
Формат/Информация : Audio Coding 3
Коммерческое название : Dolby Digital
Идентификатор кодека : A_AC3
Продолжительность : 1 ч. 50 м.
Вид битрейта : Постоянный
Битрейт : 192 Кбит/сек
Каналы : 2 канала
Channel layout : L R
Частота : 48,0 КГц
Частота кадров : 31,250 кадров/сек (1536 SPF)
Метод сжатия : С потерями
Размер потока : 152 Мбайт (3%)
Заголовок : MVO - HDRezka Studio
Язык : Russian
Service kind : Complete Main
Default : Да
Forced : Нет
Аудио #2
Идентификатор : 3
Формат : E-AC-3
Формат/Информация : Enhanced AC-3
Коммерческое название : Dolby Digital Plus
Идентификатор кодека : A_EAC3
Продолжительность : 1 ч. 50 м.
Вид битрейта : Постоянный
Битрейт : 640 Кбит/сек
Каналы : 6 каналов
Channel layout : L R C LFE Ls Rs
Частота : 48,0 КГц
Частота кадров : 31,250 кадров/сек (1536 SPF)
Метод сжатия : С потерями
Размер потока : 507 Мбайт (8%)
Заголовок : Original
Язык : English
Service kind : Complete Main
Default : Нет
Forced : Нет
Текст #1
Идентификатор : 4
Формат : UTF-8
Идентификатор кодека : S_TEXT/UTF8
Идентификатор кодека/Информация : UTF-8 Plain Text
Продолжительность : 1 ч. 41 м.
Битрейт : 0 бит/сек
Count of elements : 8
Размер потока : 546 байт (0%)
Заголовок : [forced]
Язык : Russian
Default : Да
Forced : Нет
Текст #2
Идентификатор : 5
Формат : UTF-8
Идентификатор кодека : S_TEXT/UTF8
Идентификатор кодека/Информация : UTF-8 Plain Text
Продолжительность : 1 ч. 50 м.
Битрейт : 68 бит/сек
Count of elements : 1114
Размер потока : 55,7 Кбайт (0%)
Заголовок : [full [stirlooo | 18+]]
Язык : Russian
Default : Нет
Forced : Нет
Текст #3
Идентификатор : 6
Формат : UTF-8
Идентификатор кодека : S_TEXT/UTF8
Идентификатор кодека/Информация : UTF-8 Plain Text
Продолжительность : 1 ч. 12 м.
Битрейт : 0 бит/сек
Count of elements : 10
Размер потока : 140 байт (0%)
Заголовок : [forced]
Язык : English
Default : Нет
Forced : Нет
Текст #4
Идентификатор : 7
Формат : UTF-8
Идентификатор кодека : S_TEXT/UTF8
Идентификатор кодека/Информация : UTF-8 Plain Text
Продолжительность : 1 ч. 43 м.
Битрейт : 47 бит/сек
Count of elements : 1336
Размер потока : 36,3 Кбайт (0%)
Заголовок : [full]
Язык : English
Default : Нет
Forced : Нет
Текст #5
Идентификатор : 8
Формат : UTF-8
Идентификатор кодека : S_TEXT/UTF8
Идентификатор кодека/Информация : UTF-8 Plain Text
Продолжительность : 1 ч. 49 м.
Битрейт : 63 бит/сек
Count of elements : 1874
Размер потока : 50,8 Кбайт (0%)
Заголовок : [SDH]
Язык : English
Default : Нет
Forced : Нет
Меню
00:00:00.000 : en:Scene 01
01:43:54.958 : en:End Credits

Показать сообщения

Вы не можете начинать темы
Вы не можете отвечать на сообщения
Вы не можете редактировать свои сообщения
Вы не можете удалять свои сообщения
Вы не можете голосовать в опросах
Вы не можете прикреплять файлы к сообщениям
Вы не можете скачивать файлы

Текущее время: 15-Июл 05:46

Часовой пояс: UTC ± 0

Пользовательское соглашение Для правообладателей Реклама на сайте Top.Mail.Ru