Подождите, идет загрузка сайта ...
2
Папины дочки. Новогодние-
Год выхода: 2023
Страна: Россия
Жанр: Комедия, семейный, новогодний
Студия: Кинокомпания "START"
Продолжительность: ~ 01:25:00
Перевод: Не требуется
Субтитры: Русские
Режиссер: Дмитрий Грибанов
В ролях: Филипп Бледный, Виталия Корниенко, Ева Смирнова, Полина Айнутдинова, Полина Денисова, Мирослава Карпович, Татьяна Орлова, Александр Олешко, Алексей Демидов, Михаил Сотников (II), Александр Ильин, Артём Осипов, Джемал Тетруашвили-Качество: WEB-DLRip-AVC
Формат: MKV
Видео кодек: AVC
Аудио кодек: AC3
Видео: AVC, 1024x432, (2.40:1), ~ 2016 kbps, 25 fps, 0,190 bpp
Аудио: AC3 / 2 ch / 48.0 kHz / 192 kbps /-О фильме: Утром 1 января олигарх Федотов приглашает Веника, Соню, Арину, Диану и Лизу на Мальдивы, однако принципиальный Васильев отказывается от щедрого подарка. Многодетный отец быстро находит достойную и недорогую альтернативу заграничному путешествию - два дня в подмосковном комплексе с пятизвездочным отелем, горнолыжной трассой и бассейном. На месте выясняется, что реклама в интернете не совпадает с реальностью. Правда, на месте компания понимает, что всё не так роскошно, как им обещал Веник. Теперь Венику предстоит очень постараться, чтобы спасти каникулы...
General
Unique ID : 330349440660009299044980083517145818286 (0xF886FCECC5E08F18DAA43500B4C124AE)
Complete name : F:\Папины дочки. Новогодние.(2023).WEB-DLRip.(AVC).by.Серый1779.Files-x.mkv
Format : Matroska
Format version : Version 4 / Version 2
File size : 1.37 GiB
Duration : 1 h 25 min
Overall bit rate : 2 299 kb/s
Encoded date : UTC 2023-12-29 22:17:23
Writing application : mkvmerge v32.0.0 ('Astral Progressions') 64-bit
Writing library : libebml v1.3.7 + libmatroska v1.5.0
Video
ID : 1
Format : AVC
Format/Info : Advanced Video Codec
Format profile : [email protected]
Format settings : CABAC / 9 Ref Frames
Format settings, CABAC : Yes
Format settings, RefFrames : 9 frames
Codec ID : V_MPEG4/ISO/AVC
Duration : 1 h 25 min
Bit rate : 2 106 kb/s
Width : 1 024 pixels
Height : 432 pixels
Display aspect ratio : 2.40:1
Frame rate mode : Constant
Frame rate : 25.000 FPS
Color space : YUV
Chroma subsampling : 4:2:0
Bit depth : 8 bits
Scan type : Progressive
Bits/(Pixel*Frame) : 0.190
Stream size : 1.25 GiB (92%)
Writing library : x264 core 146 r2538 121396c
Encoding settings : cabac=1 / ref=9 / deblock=1:-2:-1 / analyse=0x3:0x133 / me=umh / subme=9 / psy=1 / psy_rd=1.00:0.15 / mixed_ref=1 / me_range=32 / chroma_me=1 / trellis=2 / 8x8dct=1 / cqm=0 / deadzone=21,11 / fast_pskip=0 / chroma_qp_offset=-3 / threads=18 / lookahead_threads=3 / sliced_threads=0 / nr=0 / decimate=1 / interlaced=0 / bluray_compat=0 / constrained_intra=0 / bframes=9 / b_pyramid=2 / b_adapt=2 / b_bias=0 / direct=3 / weightb=1 / open_gop=0 / weightp=2 / keyint=250 / keyint_min=25 / scenecut=40 / intra_refresh=0 / rc=2pass / mbtree=0 / bitrate=2106 / ratetol=1.0 / qcomp=0.60 / qpmin=0 / qpmax=69 / qpstep=4 / cplxblur=20.0 / qblur=0.5 / ip_ratio=1.40 / pb_ratio=1.30 / aq=2:1.00
Default : Yes
Forced : No
Color range : Limited
Color primaries : BT.709
Transfer characteristics : BT.709
Matrix coefficients : BT.709
Audio
ID : 2
Format : AC-3
Format/Info : Audio Coding 3
Format settings, Endianness : Big
Codec ID : A_AC3
Duration : 1 h 25 min
Bit rate mode : Constant
Bit rate : 192 kb/s
Channel(s) : 2 channels
Channel positions : Front: L R
Sampling rate : 48.0 kHz
Frame rate : 31.250 FPS (1536 SPF)
Bit depth : 16 bits
Compression mode : Lossy
Stream size : 117 MiB (8%)
Service kind : Complete Main
Default : Yes
Forced : No
Text
ID : 3
Format : UTF-8
Codec ID : S_TEXT/UTF8
Codec ID/Info : UTF-8 Plain Text
Duration : 1 h 23 min
Bit rate : 96 b/s
Count of elements : 1146
Stream size : 59.3 KiB (0%)
Title : Full
Language : Russian
Default : Yes
Forced : No

Показать сообщения

Вы не можете начинать темы
Вы не можете отвечать на сообщения
Вы не можете редактировать свои сообщения
Вы не можете удалять свои сообщения
Вы не можете голосовать в опросах
Вы не можете прикреплять файлы к сообщениям
Вы не можете скачивать файлы

Текущее время: 22-Июн 18:55

Часовой пояс: UTC ± 0

Пользовательское соглашение Для правообладателей Реклама на сайте Top.Mail.Ru