Подождите, идет загрузка сайта ...
2
Падение империи / Civil War- Год выпуска: 2024
Страна: США, Великобритания
Жанр: Боевик, драма
Продолжительность: 01:48:55
Перевод:
#1: Дублированный (неофициальный) | HDRezka Studio
#2: Профессиональный (двухголосый, закадровый) | ViruseProject | 18+
Субтитры: Русские (forced, 3 x full) , английские
Режиссер: Алекс Гарленд / Alex Garland
В ролях: Кирстен Данст, Вагнер Моура, Кейли Спейни, Стивен Хендерсон, Соноя Мидзуно, Ник Офферман, Джефферсон Уайт, Хуани Фелиз, Нельсон Ли, Эдмунд Донован-Качество: WEB-DL 1080p
Формат: MKV
Видео кодек: AVC
Аудио кодек: AC3, EAC3
Видео: 1920x1040 (1.85:1), ~7521 Кбит/сек, AVC, 23.976 кадров/сек, 8 бит
Аудио:#1: 48 kHz, AC3 Dolby Digital, 2/0 (L,R) ch, ~ 192 kbps | RUS | HDRezka Studio
Аудио:#2: 48 kHz, AC3 Dolby Digital, 3/2 (L,C,R,l,r) + LFE ch, ~ 640 kbps | RUS | ViruseProject | 18+
Аудио #3: 48 kHz, E-AC3 JOC Dolby Digital, 3/2 (L,C,R,l,r) + LFE ch, ~ 768 kbps | ENG-Описание: Национальная гвардия Калифорнии и Техаса при поддержке боевой техники и авиации штурмуют столицу. Белый дом вот-вот падет. Группа журналистов пытается добраться до пылающего Вашингтона, чтобы взять последнее интервью у президента некогда Соединенных Штатов Америки. Но в стране, где царит хаос, нет ничего дороже литра бензина и ничего дешевле, чем человеческая жизнь.
Общее
Уникальный идентификатор : 84961967815276725612062769716361641321 (0x3FEB146D711F396F4C4FBB4F08933D69)
Полное имя : D:TorrentsCivil.War.2024.1080p.AMZN_от_от New-Team.mkv
Формат : Matroska
Версия формата : Version 4
Размер файла : 6,93 Гбайт
Продолжительность : 1 ч. 48 м.
Общий поток : 9 122 Кбит/сек
Название фильма : Civil.War.2024.1080p.AMZN_от_от New-Team
Дата кодирования : UTC 2024-05-27 02:19:38
Программа кодирования : mkvmerge v79.0 ('Funeral Pyres') 64-bit
Библиотека кодирования : libebml v1.4.4 + libmatroska v1.7.1
Видео
Идентификатор : 1
Формат : AVC
Формат/Информация : Advanced Video Codec
Профиль формата : High@L4
Настройки формата : CABAC / 4 Ref Frames
Параметр CABAC формата : Да
Параметр RefFrames формата : 4 кадра
Идентификатор кодека : V_MPEG4/ISO/AVC
Продолжительность : 1 ч. 48 м.
Вид битрейта : Постоянный
Битрейт : 7 521 Кбит/сек
Номинальный битрейт : 10 000 Кбит/сек
Ширина : 1 920 пикселей
Высота : 1 040 пикселей
Соотношение сторон : 1,85:1
Режим частоты кадров : Постоянный
Частота кадров : 23,976 (24000/1001) кадра/сек
Цветовое пространство : YUV
Субдискретизация насыщенности : 4:2:0
Битовая глубина : 8 бит
Тип развёртки : Прогрессивная
Бит/(Пиксели*Кадры) : 0.157
Размер потока : 5,71 Гбайт (82%)
Default : Да
Forced : Нет
Цветовой диапазон : Limited
Основные цвета : BT.709
Характеристики трансфера : BT.709
Коэффициенты матрицы : BT.709
Аудио #1
Идентификатор : 2
Формат : AC-3
Формат/Информация : Audio Coding 3
Коммерческое название : Dolby Digital
Идентификатор кодека : A_AC3
Продолжительность : 1 ч. 48 м.
Вид битрейта : Постоянный
Битрейт : 192 Кбит/сек
Каналы : 2 канала
Channel layout : L R
Частота : 48,0 КГц
Частота кадров : 31,250 кадров/сек (1536 SPF)
Метод сжатия : С потерями
Размер потока : 149 Мбайт (2%)
Заголовок : DUB - HDRezka Studio
Язык : Russian
Service kind : Complete Main
Default : Да
Forced : Нет
Аудио #2
Идентификатор : 3
Формат : AC-3
Формат/Информация : Audio Coding 3
Коммерческое название : Dolby Digital
Идентификатор кодека : A_AC3
Продолжительность : 1 ч. 48 м.
Вид битрейта : Постоянный
Битрейт : 640 Кбит/сек
Каналы : 6 каналов
Channel layout : L R C LFE Ls Rs
Частота : 48,0 КГц
Частота кадров : 31,250 кадров/сек (1536 SPF)
Метод сжатия : С потерями
Размер потока : 498 Мбайт (7%)
Заголовок : DVO - ViruseProject | 18+
Язык : Russian
Service kind : Complete Main
Default : Нет
Forced : Нет
Аудио #3
Идентификатор : 4
Формат : E-AC-3 JOC
Формат/Информация : Enhanced AC-3 with Joint Object Coding
Коммерческое название : Dolby Digital Plus with Dolby Atmos
Идентификатор кодека : A_EAC3
Продолжительность : 1 ч. 48 м.
Вид битрейта : Постоянный
Битрейт : 768 Кбит/сек
Каналы : 6 каналов
Channel layout : L R C LFE Ls Rs
Частота : 48,0 КГц
Частота кадров : 31,250 кадров/сек (1536 SPF)
Метод сжатия : С потерями
Задержка видео : 19 мс.
Размер потока : 597 Мбайт (8%)
Заголовок : Original
Язык : English
Service kind : Complete Main
Default : Нет
Forced : Нет
Complexity index : 16
Number of dynamic objects : 15
Bed channel count : 1 канал
Bed channel configuration : LFE
Текст #1
Идентификатор : 5
Формат : UTF-8
Идентификатор кодека : S_TEXT/UTF8
Идентификатор кодека/Информация : UTF-8 Plain Text
Продолжительность : 1 ч. 43 м.
Битрейт : 1 бит/сек
Count of elements : 16
Размер потока : 846 байт (0%)
Заголовок : [forced]
Язык : Russian
Default : Да
Forced : Нет
Текст #2
Идентификатор : 6
Формат : UTF-8
Идентификатор кодека : S_TEXT/UTF8
Идентификатор кодека/Информация : UTF-8 Plain Text
Продолжительность : 1 ч. 43 м.
Битрейт : 58 бит/сек
Count of elements : 1000
Размер потока : 44,1 Кбайт (0%)
Заголовок : [Full [cool story blog | 18+]]
Язык : Russian
Default : Нет
Forced : Нет
Текст #3
Идентификатор : 7
Формат : UTF-8
Идентификатор кодека : S_TEXT/UTF8
Идентификатор кодека/Информация : UTF-8 Plain Text
Продолжительность : 1 ч. 40 м.
Битрейт : 58 бит/сек
Count of elements : 1014
Размер потока : 42,9 Кбайт (0%)
Заголовок : [Full [Un Chat Andalou | 18+]]
Язык : Russian
Default : Нет
Forced : Нет
Текст #4
Идентификатор : 8
Формат : UTF-8
Идентификатор кодека : S_TEXT/UTF8
Идентификатор кодека/Информация : UTF-8 Plain Text
Продолжительность : 1 ч. 42 м.
Битрейт : 61 бит/сек
Count of elements : 1094
Размер потока : 46,0 Кбайт (0%)
Заголовок : [Full [ViruseProject | 18+]]
Язык : Russian
Default : Нет
Forced : Нет
Текст #5
Идентификатор : 9
Формат : UTF-8
Идентификатор кодека : S_TEXT/UTF8
Идентификатор кодека/Информация : UTF-8 Plain Text
Продолжительность : 1 ч. 39 м.
Битрейт : 34 бит/сек
Count of elements : 989
Размер потока : 25,4 Кбайт (0%)
Заголовок : [full]
Язык : English
Default : Нет
Forced : Нет
Меню
00:00:00.000 : en:Chapter 01
00:14:27.409 : en:Chapter 02
00:19:16.281 : en:Chapter 03
00:28:41.304 : en:Chapter 04
00:44:34.341 : en:Chapter 05
00:56:47.866 : en:Chapter 06
01:12:51.329 : en:Chapter 07
01:22:38.249 : en:Chapter 08
01:33:07.921 : en:Chapter 09
01:41:07.150 : en:Chapter 10

Показать сообщения

Вы не можете начинать темы
Вы не можете отвечать на сообщения
Вы не можете редактировать свои сообщения
Вы не можете удалять свои сообщения
Вы не можете голосовать в опросах
Вы не можете прикреплять файлы к сообщениям
Вы не можете скачивать файлы

Текущее время: 15-Июл 05:06

Часовой пояс: UTC ± 0

Пользовательское соглашение Для правообладателей Реклама на сайте Top.Mail.Ru