Подождите, идет загрузка сайта ...
2
Охота на русского гения- Год выхода: 2024
Жанр: Приключения
Страна: Россия
Студия: Кинокомпания «Северное сияние»
Продолжительность: 01:11:33
Язык: Русский
Режиссер: Мария Ефремова
В ролях: Владимир Цупка, Мария Ефремова, Александр Удалов, Антон Лебедев, Наталья Муравьевская, Екатерина Бизяева, Евгений Дорогань, Борис Домнин, Максим Брызгалов, Татьяна Супова, Ульяна Ус, Сергей Дубков, Ольга Мазур, Данила Звягинцев, Кирилл Золотарев, Роман Суховерхов, Екатерина Шабанова, Павел Кузнецов, Софья Малышенко, Андрей Томашевский-Формат: MKV
Качество: WEB-DLRip-AVC
Видео: MPEG-4 AVC, 720x404, 25.000 fps, 1919 Kbps, 0.264 bit/pixel
Аудио: 48 kHz, AC3, 2/0 ch, ~256.00 kbps avg-О фильме: В одной из обычных московских школ честно трудится одаренный учитель химии Игорь Сарочкин. В результате нескольких лет напряженной работы ему удается изобрести уникальное вещество, благодаря которому можно определить судьбу человека и его врожденные наклонности к благородным поступкам или преступным действиям. Американские спецслужбы подсылают к ученому его бывшего одноклассника Ворофеева, который давно живет в США и работает в ЦРУ. Предателю удается выкрасть образец вещества из лаборатории Сарочкина. Однако воспользоваться образцом без секретной формулы, которую химик держит в голове, не удастся никому. Чтобы защитить гениального ученого и дать ему возможность реализовать свой проект, генерал ФСБ разрабатывает хитроумный план. Майору ФСБ Дарье Тимофеевой предстоит сблизиться с Игорем, используя легенду первой любви ученого, с которой он не виделся целых семнадцать лет.
General
Unique ID : 213938096584958931346838262797875870953 (0xA0F2FA888847207F9B8F8FF962D8FCE9)
Complete name : D:Oxota.na.russkogo.genia2024.WEB-DL.AVC.ExKinoRay.mkv
Format : Matroska
Format version : Version 2
File size : 1.08 GiB
Duration : 1 h 11 min
Overall bit rate : 2 168 kb/s
Encoded date : UTC 2024-02-19 02:46:44
Writing application : mkvmerge v7.6.0 ('Garden of Dreams') 32bit built on Feb 11 2015 00:18:47
Writing library : libebml v1.3.1 + libmatroska v1.4.2
Video
ID : 1
Format : AVC
Format/Info : Advanced Video Codec
Format profile : [email protected]
Format settings, CABAC : Yes
Format settings, ReFrames : 10 frames
Codec ID : V_MPEG4/ISO/AVC
Duration : 1 h 11 min
Bit rate : 1 919 kb/s
Width : 720 pixels
Height : 404 pixels
Display aspect ratio : 16:9
Frame rate mode : Constant
Frame rate : 25.000 FPS
Color space : YUV
Chroma subsampling : 4:2:0
Bit depth : 8 bits
Scan type : Progressive
Bits/(Pixel*Frame) : 0.264
Stream size : 956 MiB (86%)
Writing library : x264 core 164 r3107+58M ae98796 t_mod_New [(8 & 10)-Enigma- X86_64]
Encoding settings : cabac=1 / ref=10 / deblock=1:-2:-2 / analyse=0x3:0x133 / me=umh / subme=10 / psy=1 / fade_compensate=0.00 / psy_rd=1.00:0.00 / mixed_ref=1 / me_range=32 / chroma_me=1 / trellis=2 / 8x8dct=1 / cqm=0 / deadzone=21,11 / fast_pskip=0 / chroma_qp_offset=-2 / threads=12 / lookahead_threads=3 / sliced_threads=0 / nr=0 / decimate=0 / interlaced=0 / bluray_compat=0 / constrained_intra=0 / fgo=0 / bframes=10 / b_pyramid=2 / b_adapt=2 / b_bias=0 / direct=3 / weightb=1 / open_gop=0 / weightp=2 / keyint=250 / keyint_min=25 / scenecut=40 / intra_refresh=0 / rc=2pass / mbtree=0 / bitrate=1919 / ratetol=1.0 / qcomp=0.60 / qpmin=0:0:0 / qpmax=69:69:69 / qpstep=4 / cplxblur=20.0 / qblur=0.5 / ip_ratio=1.40 / pb_ratio=1.30 / aq=1:1.00 / aq-sensitivity=10.00 / aq-factor=1.00:1.00:1.00 / aq2=0 / aq3=0
Default : Yes
Forced : No
Audio
ID : 2
Format : AC-3
Format/Info : Audio Coding 3
Mode extension : CM (complete main)
Format settings, Endianness : Big
Codec ID : A_AC3
Duration : 1 h 11 min
Bit rate mode : Constant
Bit rate : 256 kb/s
Channel(s) : 2 channels
Channel positions : Front: L R
Sampling rate : 48.0 kHz
Frame rate : 31.250 FPS (1536 spf)
Compression mode : Lossy
Stream size : 131 MiB (12%)
Default : Yes
Forced : No

Показать сообщения

Вы не можете начинать темы
Вы не можете отвечать на сообщения
Вы не можете редактировать свои сообщения
Вы не можете удалять свои сообщения
Вы не можете голосовать в опросах
Вы не можете прикреплять файлы к сообщениям
Вы не можете скачивать файлы

Текущее время: 20-Июн 22:21

Часовой пояс: UTC ± 0

Пользовательское соглашение Для правообладателей Реклама на сайте Top.Mail.Ru