Подождите, идет загрузка сайта ...
65
Оригинальное название: Очевидное невероятное
Год выпуска: 2024
Жанр: Комедия, фантастика
Режиссер: Александр Войтинский--В ролях: Артём Быстров, Максим Лагашкин, Светлана Ходченкова, Павел Любимцев, Илья Виногорский, Александр Нестеров, Екатерина Кабак, Антон Морозов, Алиса Лозовская, Александр Цыганов, Ирина Крючкова, Степан Летковский, Владимир Якимов, Денис Козинец, Любовь Тервинская--О сериале: На первый взгляд, Великий Гусляр кажется ничем не примечательным городком, но на деле это самое необычное место на планете. Только здесь можно без проблем пообщаться с инопланетными существами, поговорить с животными, телепортироваться в другие измерения и даже попутешествовать во времени! Местные жители привыкли к аномалиям и спокойно реагируют даже на самые невероятные происшествия. Единственное, что может испортить день гуслярцу - это надоедливый турист, желающий заработать на эксклюзивном материале об обнаруженных чудесах. Из-за нового мэра Белинского, решившего превратить город в туристический центр, размеренный быт жителей Великого Гусляра оказывается под угрозой. Чтобы сохранить покой и независимость, обитатели необычной местности решают убедить мэра, что в городе не происходит ничего экстраординарного. Но так ли это просто, как кажется на первый взгляд?--picpic pic--Страна: Россия
Студия: Кинокомпания "Медиаслово", "Okko"
Продолжительность: ~ 00:29:56--Файл
Формат: MKV
Качество: WEBRip-HEVC 2160p | 4K | SDR
Видео: MPEG-H HEVC, ~ 11.8 Mбит/с, 3840x2160, 8 бит
Аудио: E-AC3, 6 ch, 384 Кбит/с
Язык: Русский
Cубтитры: Нет--
General
Unique ID : 176413000984375133776492990572171658558 (0x84B7E87A637D4C1EE310E104E328853E)
Complete name : [NOOBDL]Очевидное.невероятное.S01E01.2160p.OKKO.WEB-DL.HEVC.mkv
Format : Matroska
Format version : Version 4
File size : 2.56 GiB
Duration : 29 min 56 s
Overall bit rate : 12.2 Mb/s
Frame rate : 25.000 FPS
Encoded date : 2024-01-24 21:25:27 UTC
Writing application : mkvmerge v81.0 ('Milliontown') 64-bit
Writing library : libebml v1.4.4 + libmatroska v1.7.1-Video
ID : 1
Format : HEVC
Format/Info : High Efficiency Video Coding
Format profile : Main@L5@Main
Codec ID : V_MPEGH/ISO/HEVC
Duration : 29 min 56 s
Bit rate : 11.8 Mb/s
Width : 3 840 pixels
Height : 2 160 pixels
Display aspect ratio : 16:9
Frame rate mode : Constant
Frame rate : 25.000 FPS
Color space : YUV
Chroma subsampling : 4:2:0
Bit depth : 8 bits
Bits/(Pixel*Frame) : 0.057
Stream size : 2.48 GiB (97%)
Writing library : x265 3.5+1-f0c1022b6:[Linux][GCC 12.2.0][64 bit] 8bit+10bit+12bit
Encoding settings : cpuid=1111039 / frame-threads=3 / wpp / no-pmode / no-pme / no-psnr / no-ssim / log-level=2 / input-csp=1 / input-res=3840x2160 / interlace=0 / total-frames=0 / level-idc=0 / high-tier=1 / uhd-bd=0 / ref=4 / no-allow-non-conformance / repeat-headers / annexb / no-aud / no-hrd / info / hash=0 / no-temporal-layers / no-open-gop / min-keyint=50 / keyint=50 / gop-lookahead=0 / bframes=3 / b-adapt=0 / b-pyramid / bframe-bias=0 / rc-lookahead=25 / lookahead-slices=4 / scenecut=0 / hist-scenecut=0 / radl=0 / no-splice / no-intra-refresh / ctu=64 / min-cu-size=8 / rect / no-amp / max-tu-size=32 / tu-inter-depth=1 / tu-intra-depth=1 / limit-tu=0 / rdoq-level=2 / dynamic-rd=0.00 / no-ssim-rd / signhide / no-tskip / nr-intra=0 / nr-inter=0 / no-constrained-intra / strong-intra-smoothing / max-merge=3 / limit-refs=3 / limit-modes / me=2 / subme=3 / merange=57 / temporal-mvp / no-frame-dup / no-hme / weightp / no-weightb / no-analyze-src-pics / deblock=0:0 / sao / no-sao-non-deblock / rd=3 / selective-sao=4 / no-early-skip / rskip / no-fast-intra / no-tskip-fast / no-cu-lossless / no-b-intra / no-splitrd-skip / rdpenalty=0 / psy-rd=2.00 / psy-rdoq=0.00 / no-rd-refine / no-lossless / cbqpoffs=0 / crqpoffs=0 / rc=abr / bitrate=12000 / qcomp=0.80 / qpstep=4 / stats-write=0 / stats-read=2 / cplxblur=20.0 / qblur=0.5 / vbv-maxrate=18000 / vbv-bufsize=24000 / vbv-init=0.8 / min-vbv-fullness=50.0 / max-vbv-fullness=80.0 / ipratio=1.40 / pbratio=1.30 / aq-mode=2 / aq-strength=1.00 / cutree / zone-count=0 / no-strict-cbr / qg-size=32 / no-rc-grain / qpmax=69 / qpmin=1 / no-const-vbv / sar=0 / overscan=0 / videoformat=5 / range=0 / colorprim=2 / transfer=2 / colormatrix=2 / chromaloc=0 / display-window=0 / cll=0, 0 / min-luma=0 / max-luma=255 / log2-max-poc-lsb=8 / vui-timing-info / vui-hrd-info / slices=1 / no-opt-qp-pps / no-opt-ref-list-length-pps / no-multi-pass-opt-rps / scenecut-bias=0.05 / hist-threshold=0.03 / no-opt-cu-delta-qp / no-aq-motion / no-hdr10 / no-hdr10-opt / no-dhdr10-opt / no-idr-recovery-sei / analysis-reuse-level=0 / analysis-save-reuse-level=0 / analysis-load-reuse-level=0 / scale-factor=0 / refine-intra=0 / refine-inter=0 / refine-mv=1 / refine-ctu-distortion=0 / no-limit-sao / ctu-info=0 / no-lowpass-dct / refine-analysis-type=0 / copy-pic=1 / max-ausize-factor=1.0 / no-dynamic-refine / no-single-sei / no-hevc-aq / no-svt / no-field / qp-adaptation-range=1.00 / scenecut-aware-qp=0conformance-window-offsets / right=0 / bottom=0 / decoder-max-rate=0 / no-vbv-live-multi-pass
Default : Yes
Forced : No
Color range : Limited-Audio
ID : 2
Format : E-AC-3
Format/Info : Enhanced AC-3
Commercial name : Dolby Digital Plus
Codec ID : A_EAC3
Duration : 29 min 56 s
Bit rate mode : Constant
Bit rate : 384 kb/s
Channel(s) : 6 channels
Channel layout : L R C LFE Ls Rs
Sampling rate : 48.0 kHz
Frame rate : 31.250 FPS (1536 SPF)
Bit depth : 32 bits
Compression mode : Lossy
Stream size : 82.2 MiB (3%)
Title : "Русский 5.1"
Language : Russian
Service kind : Complete Main
Default : Yes
Forced : No

Показать сообщения

Вы не можете начинать темы
Вы не можете отвечать на сообщения
Вы не можете редактировать свои сообщения
Вы не можете удалять свои сообщения
Вы не можете голосовать в опросах
Вы не можете прикреплять файлы к сообщениям
Вы не можете скачивать файлы

Текущее время: 12-Июн 18:03

Часовой пояс: UTC ± 0

Пользовательское соглашение Для правообладателей Реклама на сайте Top.Mail.Ru