Подождите, идет загрузка сайта ...
2
Наполеон / Napoleon- Год выпуска: 2023
Страна: США
Жанр: Биография, военный, драма, история
Продолжительность: 02:29:50
Перевод: Профессиональный (дублированный)
Субтитры: Русские
Режиссер: Ридли Скотт
В ролях: Хоакин Феникс, Ванесса Кирби, Тахар Рахим, Руперт Эверетт, Марк Боннар, Пол Рис, Бен Майлз, Риана Дьюс, Людивин Санье, Эдуар Филиппонна-Качество: WEBRip 1080p
Формат: MKV
Видео кодек: AVC
Аудио кодек: AC3
Видео: AVC, 1920 x 804, 5 230 Kbps, 24,000 fps
Аудио: AC3, 6 ch, 48 kHz, 448 kbps RUS-Описание: История тяжёлого пути Бонапарта к власти через призму его изменчивых отношений с любовью всей жизни — Жозефиной.
General
Unique ID                      : 214329043908286990626574172642629123121 (0xA13E45B97B7998FB894D5C8FB2EFFC31)
Complete name                  : F:\Torrents\Наполеон.2023.WEBRip.[1080p].mkv
Format                         : Matroska
Format version                 : Version 4
File size                      : 5.94 GiB
Duration                       : 2 h 29 min
Overall bit rate               : 5 680 kb/s
Frame rate                     : 24.000 FPS
Movie name                     : Наполеон.2023.WEBRip.[1080p].NNMClub
Encoded date                   : 2024-01-03 11:25:49 UTC
Writing application            : mkvmerge v8.3.0 ('Over the Horizon') 64bit
Writing library                : libebml v1.3.1 + libmatroska v1.4.2
Video
ID                             : 1
Format                         : AVC
Format/Info                    : Advanced Video Codec
Format profile                 : High@L4
Format settings                : CABAC / 1 Ref Frames
Format settings, CABAC         : Yes
Format settings, Reference fra : 1 frame
Codec ID                       : V_MPEG4/ISO/AVC
Duration                       : 2 h 29 min
Bit rate                       : 5 230 kb/s
Width                          : 1 920 pixels
Height                         : 804 pixels
Display aspect ratio           : 2.40:1
Frame rate mode                : Constant
Frame rate                     : 24.000 FPS
Color space                    : YUV
Chroma subsampling             : 4:2:0
Bit depth                      : 8 bits
Scan type                      : Progressive
Bits/(Pixel*Frame)             : 0.141
Stream size                    : 5.47 GiB (92%)
Writing library                : x264 core 158 r2984 3759fcb
Encoding settings              : cabac=1 / ref=1 / deblock=1:0:0 / analyse=0x3:0x113 / me=hex / subme=2 / psy=1 / psy_rd=1.00:0.00 / mixed_ref=0 / me_range=16 / chroma_me=1 / trellis=0 / 8x8dct=1 / cqm=0 / deadzone=21,11 / fast_pskip=1 / chroma_qp_offset=0 / threads=6 / lookahead_threads=2 / sliced_threads=0 / nr=0 / decimate=1 / interlaced=0 / bluray_compat=0 / constrained_intra=0 / bframes=0 / weightp=1 / keyint=24 / keyint_min=2 / scenecut=40 / intra_refresh=0 / rc_lookahead=10 / rc=crf / mbtree=1 / crf=18.0 / qcomp=0.60 / qpmin=18 / qpmax=18 / qpstep=4 / ip_ratio=1.40 / aq=1:1.00
Language                       : English
Default                        : Yes
Forced                         : No
Audio
ID                             : 2
Format                         : AC-3
Format/Info                    : Audio Coding 3
Commercial name                : Dolby Digital
Codec ID                       : A_AC3
Duration                       : 2 h 29 min
Bit rate mode                  : Constant
Bit rate                       : 448 kb/s
Channel(s)                     : 6 channels
Channel layout                 : L R C LFE Ls Rs
Sampling rate                  : 48.0 kHz
Frame rate                     : 31.250 FPS (1536 SPF)
Compression mode               : Lossy
Delay relative to video        : -5 ms
Stream size                    : 480 MiB (8%)
Language                       : Russian
Service kind                   : Complete Main
Default                        : Yes
Forced                         : No

Показать сообщения

Вы не можете начинать темы
Вы не можете отвечать на сообщения
Вы не можете редактировать свои сообщения
Вы не можете удалять свои сообщения
Вы не можете голосовать в опросах
Вы не можете прикреплять файлы к сообщениям
Вы не можете скачивать файлы

Текущее время: 20-Июн 21:48

Часовой пояс: UTC ± 0

Пользовательское соглашение Для правообладателей Реклама на сайте Top.Mail.Ru