Подождите, идет загрузка сайта ...
2
Мятежная Луна, часть 1: Дитя огня / Rebel Moon - Part One: A Child of Fire- Год выпуска: 2023
Страна: США, Венгрия, Швеция, Дания, Великобритания
Жанр: Фантастика, боевик, драма, приключения
Продолжительность: 02:15:58
Перевод 1: Профессиональный (многоголосый закадровый) NewStudio
Субтитры: Русские ( Full ), английские
Режиссер: Зак Снайдер
В ролях: София Бутелла, Чарли Ханнэм, Стюарт Мартин, Кэри Элвес, Энтони Хопкинс, Эд Скрейн, Джимон Хонсу, Джена Мэлоун, Микил Хаусмен, Кори Столл-Качество: WEB-DL 720p
Формат: MKV
Видео кодек: AVC
Аудио кодеk: AC3, Е-AC3
Видео: AVC, 1280x720 (16:9), 1193 kbps (0.054 b/px), 24.000 fps
Аудио 1: AC3, 640 kbps (CBR), 48.0 KHz (16 bits), 6 ch, Russian
Аудио 2: Е-AC3, 768 kbps (CBR), 48.0 KHz (16 bits), 6 ch, English-Описание: В галактической империи Праматерь после убийства королевской семьи власть узурпировал коварный сенатор. На окраинах зарождается революция, поэтому среди планет курсирует боевой корабль под руководством безжалостного адмирала Нобла. Когда ищущие повстанцев прибывают на захолустную луну Велдт, чтобы пополнить запасы пищи, а также убивать и насиловать, они неожиданно наталкиваются на сопротивление — загадочная женщина по имени Кора, которую пару лет назад вытащил из обломков корабля местный фермер, оказывается беглянкой из военной элиты империи.
Общее
Уникальный идентификатор : 316455755212286395759016415143280009435 (0xEE1329584E7E0A90893514BAE88060DB)
Полное имя : E:\сериалы\Rebel.Moon.Part.One.A.Child.of.Fire.720p.mkv
Формат : Matroska
Версия формата : Version 4
Размер файла : 2,47 Гбайт
Продолжительность : 2 ч. 15 м.
Режим общего битрейта : Переменный
Общий поток : 2 603 Кбит/сек
Дата кодирования : UTC 2023-12-29 04:53:11
Программа кодирования : mkvmerge v35.0.0 ('All The Love In The World') 64-bit
Библиотека кодирования : libebml v1.3.9 + libmatroska v1.5.2
Видео
Идентификатор : 1
Формат : AVC
Формат/Информация : Advanced Video Codec
Профиль формата : [email protected]
Настройки формата : CABAC / 3 Ref Frames
Параметр CABAC формата : Да
Параметр RefFrames формата : 3 кадра
Идентификатор кодека : V_MPEG4/ISO/AVC
Продолжительность : 2 ч. 15 м.
Вид битрейта : Переменный
Битрейт : 1 193 Кбит/сек
Номинальный битрейт : 790 Кбит/сек
Максимальный битрейт : 1 666 Кбит/сек
Ширина : 1 280 пикселей
Высота : 720 пикселей
Соотношение сторон : 16:9
Режим частоты кадров : Постоянный
Частота кадров : 24,000 кадра/сек
Цветовое пространство : YUV
Субдискретизация насыщенности : 4:2:0
Битовая глубина : 8 бит
Тип развёртки : Прогрессивная
Бит/(Пиксели*Кадры) : 0.054
Размер потока : 1,13 Гбайт (46%)
Библиотека кодирования : x264 core 148 r2727 7d026e8
Настройки программы : cabac=1 / ref=3 / deblock=1:0:0 / analyse=0x1:0x111 / me=umh / subme=10 / psy=1 / psy_rd=1.00:0.00 / mixed_ref=1 / me_range=24 / chroma_me=1 / trellis=2 / 8x8dct=0 / cqm=0 / deadzone=21,11 / fast_pskip=1 / chroma_qp_offset=-2 / threads=6 / lookahead_threads=1 / sliced_threads=0 / nr=0 / decimate=1 / interlaced=0 / bluray_compat=0 / stitchable=1 / constrained_intra=0 / bframes=2 / b_pyramid=0 / b_adapt=2 / b_bias=0 / direct=3 / weightb=1 / open_gop=0 / weightp=2 / keyint=240 / keyint_min=121 / scenecut=0 / intra_refresh=0 / rc_lookahead=48 / rc=2pass / mbtree=1 / bitrate=790 / ratetol=1.0 / qcomp=0.50 / qpmin=6 / qpmax=51 / qpstep=4 / cplxblur=20.0 / qblur=0.5 / vbv_maxrate=1666 / vbv_bufsize=2777 / nal_hrd=vbr / filler=0 / ip_ratio=1.40 / aq=1:1.00
Default : Да
Forced : Нет
Аудио #1
Идентификатор : 2
Формат : AC-3
Формат/Информация : Audio Coding 3
Коммерческое название : Dolby Digital
Идентификатор кодека : A_AC3
Продолжительность : 2 ч. 15 м.
Вид битрейта : Постоянный
Битрейт : 640 Кбит/сек
Каналы : 6 каналов
Channel layout : L R C LFE Ls Rs
Частота : 48,0 КГц
Частота кадров : 31,250 кадров/сек (1536 SPF)
Метод сжатия : С потерями
Размер потока : 622 Мбайт (25%)
Заголовок : NewStudio
Язык : Russian
Service kind : Complete Main
Default : Да
Forced : Нет
Аудио #2
Идентификатор : 3
Формат : E-AC-3 JOC
Формат/Информация : Enhanced AC-3 with Joint Object Coding
Коммерческое название : Dolby Digital Plus with Dolby Atmos
Идентификатор кодека : A_EAC3
Продолжительность : 2 ч. 15 м.
Вид битрейта : Постоянный
Битрейт : 768 Кбит/сек
Каналы : 6 каналов
Channel layout : L R C LFE Ls Rs
Частота : 48,0 КГц
Частота кадров : 31,250 кадров/сек (1536 SPF)
Метод сжатия : С потерями
Размер потока : 747 Мбайт (30%)
Язык : English
Service kind : Complete Main
Default : Нет
Forced : Нет
Complexity index : 16
Number of dynamic objects : 15
Bed channel count : 1 канал
Bed channel configuration : LFE
Текст #1
Идентификатор : 4
Формат : UTF-8
Идентификатор кодека : S_TEXT/UTF8
Идентификатор кодека/Информация : UTF-8 Plain Text
Продолжительность : 2 ч. 12 м.
Битрейт : 59 бит/сек
Count of elements : 1135
Размер потока : 57,6 Кбайт (0%)
Заголовок : Russian
Язык : Russian
Default : Нет
Forced : Нет
Текст #2
Идентификатор : 5
Формат : UTF-8
Идентификатор кодека : S_TEXT/UTF8
Идентификатор кодека/Информация : UTF-8 Plain Text
Продолжительность : 32 м. 15 с.
Битрейт : 2 бит/сек
Count of elements : 17
Размер потока : 521 байт (0%)
Заголовок : English (forced)
Язык : English
Default : Нет
Forced : Нет
Текст #3
Идентификатор : 6
Формат : UTF-8
Идентификатор кодека : S_TEXT/UTF8
Идентификатор кодека/Информация : UTF-8 Plain Text
Продолжительность : 2 ч. 13 м.
Битрейт : 48 бит/сек
Count of elements : 1570
Размер потока : 47,8 Кбайт (0%)
Заголовок : English (SDH)
Язык : English
Default : Нет
Forced : Нет

Показать сообщения

Вы не можете начинать темы
Вы не можете отвечать на сообщения
Вы не можете редактировать свои сообщения
Вы не можете удалять свои сообщения
Вы не можете голосовать в опросах
Вы не можете прикреплять файлы к сообщениям
Вы не можете скачивать файлы

Текущее время: 12-Июн 22:08

Часовой пояс: UTC ± 0

Пользовательское соглашение Для правообладателей Реклама на сайте Top.Mail.Ru