Подождите, идет загрузка сайта ...
65
-Мятежная Луна, часть 1: Дитя огня / Rebel Moon - Part One: A Child of Fire
-- Год выпуска: 2023
Страна: США
Жанр: фантастика, боевик, приключения
Продолжительность: 02:15:58
Перевод: Дублированный [Red Head Sound]
Субтитры: Русские (Forced, Full), Английские (Full, SDH)-Режиссер: Зак Снайдер--В ролях: Руперт Френд, Эд Скрейн, София Бутелла, Чарли Ханнэм, Энтони Хопкинс, Кэри Элвес, Джена Мэлоун, Михил Хёйсман, Клеопатра Коулмэн, Джимон Хонсу, Кори Столл, Стюарт Мартин, Пэ Ду-на, Доминик Бёрджесс, Альфонсо Эррера--Описание: В галактической империи Праматерь после убийства королевской семьи власть узурпировал коварный сенатор. На окраинах зарождается революция, поэтому среди планет курсирует боевой корабль под руководством безжалостного адмирала Нобла. Когда ищущие повстанцев прибывают на захолустную луну Велдт, чтобы пополнить запасы пищи, а также убивать и насиловать, они неожиданно наталкиваются на сопротивление — загадочная женщина по имени Кора, которую пару лет назад вытащил из обломков корабля местный фермер, оказывается беглянкой из военной элиты империи.--pic picpic--Качество: WEB-DL 2160p
Формат: MKV
Видео кодек: MPEG-H HEVC
Аудио кодек: АС3, E-AC3 Atmos
Видео: 3840х2160, 16.2 Mbit/s, 24.000 fps
Аудио #01: 48 kHz, AC3 Dolby Digital, 6 ch, ~640 kbps | Дублированный | RUS |pic
Аудио #02: 48 kHz, E-AC3 Dolby Digital Plus Atmos, 6 ch, ~768 kbps | [Оригинал | ENG|pic--
General
Unique ID : 244492195794127314971005921017890376912 (0xB7EF7BEE4C4D024BB7CE5BF28F9C8CD0)
Complete name : Rebel.Moon.Part.One.A.Child.of.Fire.2023.D.WEB-DL.2160p.SDR.mkv
Format : Matroska
Format version : Version 4
File size : 17.1 GiB
Duration : 2 h 15 min
Overall bit rate : 18.0 Mb/s
Encoded date : UTC 2024-01-27 13:25:28
Writing application : mkvmerge v6.1.0 ('Old Devil') built on Mar 4 2013 09:10:42
Writing library : libebml v1.3.0 + libmatroska v1.4.0
Video
ID : 1
Format : HEVC
Format/Info : High Efficiency Video Coding
Format profile : Main 10@L5@Main
Codec ID : V_MPEGH/ISO/HEVC
Duration : 2 h 15 min
Bit rate : 16.2 Mb/s
Width : 3 840 pixels
Height : 2 160 pixels
Display aspect ratio : 16:9
Frame rate mode : Constant
Frame rate : 24.000 FPS
Color space : YUV
Chroma subsampling : 4:2:0
Bit depth : 10 bits
Bits/(Pixel*Frame) : 0.082
Stream size : 15.4 GiB (90%)
Default : Yes
Forced : No
Color range : Limited
Color primaries : BT.709
Transfer characteristics : BT.709
Matrix coefficients : BT.709
Audio #1
ID : 2
Format : AC-3
Format/Info : Audio Coding 3
Commercial name : Dolby Digital
Codec ID : A_AC3
Duration : 2 h 15 min
Bit rate mode : Constant
Bit rate : 640 kb/s
Channel(s) : 6 channels
Channel layout : L R C LFE Ls Rs
Sampling rate : 48.0 kHz
Frame rate : 31.250 FPS (1536 SPF)
Compression mode : Lossy
Stream size : 622 MiB (4%)
Title : Дубляж - Red Head Sound
Language : Russian
Service kind : Complete Main
Default : Yes
Forced : No
Audio #2
ID : 3
Format : E-AC-3 JOC
Format/Info : Enhanced AC-3 with Joint Object Coding
Commercial name : Dolby Digital Plus with Dolby Atmos
Codec ID : A_EAC3
Duration : 2 h 15 min
Bit rate mode : Constant
Bit rate : 768 kb/s
Channel(s) : 6 channels
Channel layout : L R C LFE Ls Rs
Sampling rate : 48.0 kHz
Frame rate : 31.250 FPS (1536 SPF)
Compression mode : Lossy
Stream size : 747 MiB (4%)
Title : Оригинал
Language : English
Service kind : Complete Main
Default : No
Forced : No
Complexity index : 16
Number of dynamic objects : 15
Bed channel count : 1 channel
Bed channel configuration : LFE
Text #1
ID : 4
Format : UTF-8
Codec ID : S_TEXT/UTF8
Codec ID/Info : UTF-8 Plain Text
Title : русские, форсированные
Language : Russian
Default : Yes
Forced : No
Text #2
ID : 5
Format : UTF-8
Codec ID : S_TEXT/UTF8
Codec ID/Info : UTF-8 Plain Text
Title : русские, полные
Language : Russian
Default : No
Forced : No
Text #3
ID : 6
Format : UTF-8
Codec ID : S_TEXT/UTF8
Codec ID/Info : UTF-8 Plain Text
Title : оригинал, форсированные
Language : English
Default : No
Forced : No
Text #4
ID : 7
Format : UTF-8
Codec ID : S_TEXT/UTF8
Codec ID/Info : UTF-8 Plain Text
Title : оригинал, SDH
Language : English
Default : No
Forced : No

Показать сообщения

Вы не можете начинать темы
Вы не можете отвечать на сообщения
Вы не можете редактировать свои сообщения
Вы не можете удалять свои сообщения
Вы не можете голосовать в опросах
Вы не можете прикреплять файлы к сообщениям
Вы не можете скачивать файлы

Текущее время: 16-Июн 15:17

Часовой пояс: UTC ± 0

Пользовательское соглашение Для правообладателей Реклама на сайте Top.Mail.Ru