Подождите, идет загрузка сайта ...
65
-Мятежная Луна, часть 1: Дитя огня / Rebel Moon - Part One: A Child of Fire
-- Год выпуска: 2023
Страна: США
Жанр: фантастика, боевик, приключения
Продолжительность: 02:15:58
Перевод: Дублированный [Red Head Sound]
Субтитры: Русские (Forced, Full), Английские (Full, SDH)
Режиссер: Зак Снайдер--В ролях: Руперт Френд, Эд Скрейн, София Бутелла, Чарли Ханнэм, Энтони Хопкинс, Кэри Элвес, Джена Мэлоун, Михил Хёйсман, Клеопатра Коулмэн, Джимон Хонсу, Кори Столл, Стюарт Мартин, Пэ Ду-на, Доминик Бёрджесс, Альфонсо Эррера--Описание: В галактической империи Праматерь после убийства королевской семьи власть узурпировал коварный сенатор. На окраинах зарождается революция, поэтому среди планет курсирует боевой корабль под руководством безжалостного адмирала Нобла. Когда ищущие повстанцев прибывают на захолустную луну Велдт, чтобы пополнить запасы пищи, а также убивать и насиловать, они неожиданно наталкиваются на сопротивление — загадочная женщина по имени Кора, которую пару лет назад вытащил из обломков корабля местный фермер, оказывается беглянкой из военной элиты империи.--pic picpic--Качество: WEB-DL 1080p
Формат: MKV
Видео кодек: MPEG-4 AVC
Аудио кодек: АС3, E-AC3 Atmos
Видео: 1920х1080, 4712 Kbit/s, 24.000 fps
Аудио #01: 48 kHz, AC3 Dolby Digital, 6 ch, ~640 kbps | Дублированный | RUS |pic
Аудио #02: 48 kHz, E-AC3 Dolby Digital Plus Atmos, 6 ch, ~768 kbps | [Оригинал | ENG|pic--
General
Unique ID : 211487783900608368262143595038732147374 (0x9F1B10CA6A93931AAAD87368617B5AAE)
Complete name : Rebel.Moon.Part.One.A.Child.of.Fire.2023D.WEB-DL.1080p.mkv
Format : Matroska
Format version : Version 4
File size : 5.93 GiB
Duration : 2 h 15 min
Overall bit rate mode : Variable
Overall bit rate : 6 244 kb/s
Encoded date : UTC 2024-01-27 13:22:39
Writing application : mkvmerge v6.1.0 ('Old Devil') built on Mar 4 2013 09:10:42
Writing library : libebml v1.3.0 + libmatroska v1.4.0
Video
ID : 1
Format : AVC
Format/Info : Advanced Video Codec
Format profile : Main@L4
Format settings : CABAC / 3 Ref Frames
Format settings, CABAC : Yes
Format settings, Reference frames : 3 frames
Codec ID : V_MPEG4/ISO/AVC
Duration : 2 h 15 min
Bit rate mode : Variable
Bit rate : 4 712 kb/s
Nominal bit rate : 5 000 kb/s
Maximum bit rate : 7 500 kb/s
Width : 1 920 pixels
Height : 1 080 pixels
Display aspect ratio : 16:9
Frame rate mode : Constant
Frame rate : 24.000 FPS
Color space : YUV
Chroma subsampling : 4:2:0
Bit depth : 8 bits
Scan type : Progressive
Bits/(Pixel*Frame) : 0.095
Stream size : 4.48 GiB (75%)
Writing library : x264 core 148 r2727 7d026e8
Encoding settings : cabac=1 / ref=3 / deblock=1:0:0 / analyse=0x1:0x111 / me=umh / subme=10 / psy=1 / psy_rd=1.00:0.00 / mixed_ref=1 / me_range=24 / chroma_me=1 / trellis=2 / 8x8dct=0 / cqm=0 / deadzone=21,11 / fast_pskip=1 / chroma_qp_offset=-2 / threads=6 / lookahead_threads=1 / sliced_threads=0 / nr=0 / decimate=1 / interlaced=0 / bluray_compat=0 / stitchable=1 / constrained_intra=0 / bframes=2 / b_pyramid=0 / b_adapt=2 / b_bias=0 / direct=3 / weightb=1 / open_gop=0 / weightp=2 / keyint=240 / keyint_min=121 / scenecut=0 / intra_refresh=0 / rc_lookahead=48 / rc=2pass / mbtree=1 / bitrate=5000 / ratetol=1.0 / qcomp=0.50 / qpmin=6 / qpmax=51 / qpstep=4 / cplxblur=20.0 / qblur=0.5 / vbv_maxrate=7500 / vbv_bufsize=10000 / nal_hrd=vbr / filler=0 / ip_ratio=1.40 / aq=1:1.00
Default : Yes
Forced : No
Audio #1
ID : 2
Format : AC-3
Format/Info : Audio Coding 3
Commercial name : Dolby Digital
Codec ID : A_AC3
Duration : 2 h 15 min
Bit rate mode : Constant
Bit rate : 640 kb/s
Channel(s) : 6 channels
Channel layout : L R C LFE Ls Rs
Sampling rate : 48.0 kHz
Frame rate : 31.250 FPS (1536 SPF)
Compression mode : Lossy
Stream size : 622 MiB (10%)
Title : Дубляж - Red Head Sound
Language : Russian
Service kind : Complete Main
Default : Yes
Forced : No
Audio #2
ID : 3
Format : E-AC-3 JOC
Format/Info : Enhanced AC-3 with Joint Object Coding
Commercial name : Dolby Digital Plus with Dolby Atmos
Codec ID : A_EAC3
Duration : 2 h 15 min
Bit rate mode : Constant
Bit rate : 768 kb/s
Channel(s) : 6 channels
Channel layout : L R C LFE Ls Rs
Sampling rate : 48.0 kHz
Frame rate : 31.250 FPS (1536 SPF)
Compression mode : Lossy
Stream size : 747 MiB (12%)
Title : English
Language : English
Service kind : Complete Main
Default : No
Forced : No
Complexity index : 16
Number of dynamic objects : 15
Bed channel count : 1 channel
Bed channel configuration : LFE
Text #1
ID : 4
Format : UTF-8
Codec ID : S_TEXT/UTF8
Codec ID/Info : UTF-8 Plain Text
Title : Дубляж - Red Head Sound
Language : Russian
Default : Yes
Forced : No
Text #2
ID : 5
Format : UTF-8
Codec ID : S_TEXT/UTF8
Codec ID/Info : UTF-8 Plain Text
Title : русские, полные
Language : Russian
Default : No
Forced : No
Text #3
ID : 6
Format : UTF-8
Codec ID : S_TEXT/UTF8
Codec ID/Info : UTF-8 Plain Text
Title : оригинал, форсированные
Language : English
Default : No
Forced : No
Text #4
ID : 7
Format : UTF-8
Codec ID : S_TEXT/UTF8
Codec ID/Info : UTF-8 Plain Text
Title : оригинал, SDH
Language : English
Default : No
Forced : No

Показать сообщения

Вы не можете начинать темы
Вы не можете отвечать на сообщения
Вы не можете редактировать свои сообщения
Вы не можете удалять свои сообщения
Вы не можете голосовать в опросах
Вы не можете прикреплять файлы к сообщениям
Вы не можете скачивать файлы

Текущее время: 22-Июн 18:43

Часовой пояс: UTC ± 0

Пользовательское соглашение Для правообладателей Реклама на сайте Top.Mail.Ru