Подождите, идет загрузка сайта ...
2
Морозко- Год выхода: 2024
Страна: Россия
Жанр: Комедия, драма
Студия: Кинокомпания "Медиаслово", "Okko Studios"
Продолжительность: ~ 00:23:34
Перевод: Не требуется
Субтитры: Нет
Сезон: 1
Количество серий: 1-2 из 8
Режиссер: Юлия Лысова
В ролях: Аглая Тарасова, Никита Ефремов, Алиса Руденко, Николай Наумов, Виктор Логинов, Андрей Федорцов, Гоша Куценко, Геннадий Масленников, Евгений Городницкий, Елизавета Гончаренко, Николай Орловский, Иван Пищулин, Егор Анисимов, Артём Гайдуков, Владислав Ценёв-Качество: WEBRip-AVC by pic
Формат: MKV
Видео кодек: AVC
Аудио кодек: AC3
Видео: AVC, 1024x432, (2.40:1), ~1600 kbps, 25 fps, 0.145 bpp
Аудио: AC3 / 6 ch / 48.0 kHz / 384 kbps /-О фильме: 33-летняя Рита работает на телевидении и производит впечатление успешной девушки. Однако на самом деле, в её душе — пустота. Работа не нравится, семьи нет, друзей и близких — тоже. Не говоря о мужчине — одиночество Риты скрашивает только чучело хорька, которое она держит на почётном месте в съемной квартире. Безжалостный диагноз, о котором она узнаёт, казалось бы, должен окончательно убить все надежды на счастье. Но именно он становится отправной точкой к её исцелению, избавлению от страхов и поиску настоящей любви.
General
Unique ID : 185495243124066686142294241980061887978 (0x8B8D15967B0E46C09DFC1E6BA7D0ADEA)
Complete name : F:\Морозко.(2024).WEBRip.(AVC).Files-x\01.Морозко.(2024).WEBRip.(AVC).by.Серый1779.Files-x.mkv
Format : Matroska
Format version : Version 2
File size : 335 MiB
Duration : 23 min 34 s
Overall bit rate : 1 986 kb/s
Encoded date : UTC 2024-03-05 23:08:01
Writing application : mkvmerge v7.8.0 ('River Man') 32bit built on Apr 3 2015 12:11:22
Writing library : libebml v1.3.1 + libmatroska v1.4.2
Video
ID : 1
Format : AVC
Format/Info : Advanced Video Codec
Format profile : [email protected]
Format settings : CABAC / 9 Ref Frames
Format settings, CABAC : Yes
Format settings, RefFrames : 9 frames
Codec ID : V_MPEG4/ISO/AVC
Duration : 23 min 34 s
Bit rate : 1 600 kb/s
Width : 1 024 pixels
Height : 432 pixels
Display aspect ratio : 2.40:1
Frame rate mode : Constant
Frame rate : 25.000 FPS
Color space : YUV
Chroma subsampling : 4:2:0
Bit depth : 8 bits
Scan type : Progressive
Bits/(Pixel*Frame) : 0.145
Stream size : 263 MiB (79%)
Writing library : x264 core 146 r2538 121396c
Encoding settings : cabac=1 / ref=9 / deblock=1:-2:-1 / analyse=0x3:0x133 / me=umh / subme=9 / psy=1 / psy_rd=1.00:0.15 / mixed_ref=1 / me_range=32 / chroma_me=1 / trellis=2 / 8x8dct=1 / cqm=0 / deadzone=21,11 / fast_pskip=0 / chroma_qp_offset=-3 / threads=18 / lookahead_threads=3 / sliced_threads=0 / nr=0 / decimate=1 / interlaced=0 / bluray_compat=0 / constrained_intra=0 / bframes=9 / b_pyramid=2 / b_adapt=2 / b_bias=0 / direct=1 / weightb=1 / open_gop=0 / weightp=2 / keyint=250 / keyint_min=25 / scenecut=40 / intra_refresh=0 / rc=2pass / mbtree=0 / bitrate=1600 / ratetol=1.0 / qcomp=0.60 / qpmin=0 / qpmax=69 / qpstep=4 / cplxblur=20.0 / qblur=0.5 / ip_ratio=1.40 / pb_ratio=1.30 / aq=2:1.00
Default : Yes
Forced : No
Color range : Limited
Color primaries : BT.709
Transfer characteristics : BT.709
Matrix coefficients : BT.709
Audio
ID : 2
Format : AC-3
Format/Info : Audio Coding 3
Format settings, Endianness : Big
Codec ID : A_AC3
Duration : 23 min 34 s
Bit rate mode : Constant
Bit rate : 384 kb/s
Channel(s) : 6 channels
Channel positions : Front: L C R, Side: L R, LFE
Sampling rate : 48.0 kHz
Frame rate : 31.250 FPS (1536 SPF)
Bit depth : 16 bits
Compression mode : Lossy
Stream size : 64.7 MiB (19%)
Service kind : Complete Main
Default : Yes
Forced : No

Показать сообщения

Вы не можете начинать темы
Вы не можете отвечать на сообщения
Вы не можете редактировать свои сообщения
Вы не можете удалять свои сообщения
Вы не можете голосовать в опросах
Вы не можете прикреплять файлы к сообщениям
Вы не можете скачивать файлы

Текущее время: 22-Июн 20:05

Часовой пояс: UTC ± 0

Пользовательское соглашение Для правообладателей Реклама на сайте Top.Mail.Ru