Подождите, идет загрузка сайта ...
2
Монарх: Наследие монстров / Monarch: Legacy of Monsters- Год выпуска: 2023
Страна: США, Япония
Жанр: фантастика, боевик, приключения
Продолжительность: 00:49:48
Сезоны / серии: Сезон: 1 / Серии: 1-8 из 10
Перевод:
- Профессиональный (многоголосый закадровый) | LostFilm
- Профессиональный (многоголосый закадровый) | NewStudio
- Профессиональный (многоголосый закадровый) | TVShows
- Профессиональный (многоголосый закадровый) | HDRezka
- Любительский (многоголосый закадровый) | NewComers
Субтитры: Rus (Forced, Full |Apple TV+|), Eng (SDH)
В ролях: Кристофер Хейердал (Christopher Heyerdahl), Мари Ямамото (Mari Yamamoto), Джесс Салгейру (Jess Salgueiro), Кёко Саито (Kyoko Saito), Доминик Типпер (Dominique Tipper), Сёта Цудзи (Shota Tsuji), Курт Рассел (Kurt Russell), Джош Коллинз (Josh Collins), Чарли Хьюсон (Charlie Hewson), Дзюнъити Тадзири (Junichi Tajiri), Дэйв Уолден (David Santana), Чарли Каруми (Charlie Karumi), Анна Саваи (Anna Sawai)
Режиссёр: Майрзи Алмас, Джулиан Холмс, Хироми Камата-Качество: WEB-DL 1080p
Формат: MKV
Видео кодек: AVC
Аудио кодек: E-AC-3 JOC, AC-3
Видео: AVC, 1920 x 1080 / 1918 x 802, 23.976 fps, 10 000 kbps
Аудио 1: AC-3, 48 kHz, 2 ch, 384 kbps |LostFilm|
Аудио 2: AC-3, 48 kHz, 6 ch, 640 kbps |NewStudio|
Аудио 3: AC-3, 48 kHz, 6 ch, 448 kbps |TVShows|
Аудио 4: AC-3, 48 kHz, 2 ch, 192 kbps |HDRezka|
Аудио 5: AC-3, 48 kHz, 6 ch, 640 kbps |NewComers|
Аудио 6: E-AC-3 JOC, 48 kHz, 6 ch, 768 kbps |Original|-Описание: Прошло немного времени с момента катастрофического разрушения Сан-Франциско монстром Годзиллой. В центре той трагедии оказалась девушка Кейт (Анна Саваи), которая спаслась сама, но не успела спасти целый автобус школьников, рухнувший с обвалившегося моста. Это не единственное, что мучает ее. От покойного отца она унаследовала связку ключей, таинственным образом приведших ее в Токио. Вломившись в чужую квартиру, шокированная Кейт выяснила, что родитель все это время вел двойную жизнь и скрывал от них с матерью вторую семью. Познакомившись со сводным братом Кентаро (Рэн Ватабэ) и его бывшей напарницей Мэй (Кирси Клемонс), Кейт узнала, что отец и от сына скрывал множество важных фактов своей биографии. Например, свою причастность к секретной организации «Монарх», стоящей за изучением гигантских тварей. Троица берется за расследование, которое приводит их к бывшему армейскому офицеру Ли Шоу (Курт Рассел). Вот кто знает об их отце больше них самих. Но что еще подозрительнее — у Ли есть такая информация, ради которой за ним охотится весь «Монарх». Что такое провокационное узнал их бывший сотрудник и как это поможет остановить новые атаки Титанов на города Земли?...
Общее
Уникальный идентификатор                 : 24626802889626456024316049598575007408 (0x1286F32052C7E2466DA8CF218ED7D6B0)
Полное имя                               : E:\_Сериалы\_Сериалы\Монарх\Monarch.Legacy.of.Monsters.S01.WEBDL.1080p.Rus.Eng\Monarch.Legacy.of.Monsters.S01E01.WEBDL.1080p.RGzsRutracker.mkv
Формат                                   : Matroska
Версия формата                           : Version 4
Размер файла                             : 4,55 Гбайт
Продолжительность                        : 49 м. 48 с.
Общий поток                              : 13,1 Мбит/сек
Частота кадров                           : 23,976 кадра/сек
Дата кодирования                         : 2023-12-05 18:02:32 UTC
Программа кодирования                    : mkvmerge v81.0 ('Milliontown') 64-bit
Библиотека кодирования                   : libebml v1.4.4 + libmatroska v1.7.1
Видео
Идентификатор                            : 1
Формат                                   : AVC
Формат/Информация                        : Advanced Video Codec
Профиль формата                          : High@L4
Настройки формата                        : CABAC / 4 Ref Frames
Параметр CABAC формата                   : Да
Параметр RefFrames формата               : 4 кадра
Идентификатор кодека                     : V_MPEG4/ISO/AVC
Продолжительность                        : 49 м. 48 с.
Битрейт                                  : 10,0 Мбит/сек
Ширина                                   : 1 920 пикселей
Высота                                   : 1 080 пикселей
Соотношение сторон                       : 16:9
Режим частоты кадров                     : Постоянный
Частота кадров                           : 23,976 (24000/1001) кадра/сек
Цветовое пространство                    : YUV
Субдискретизация насыщенности            : 4:2:0
Битовая глубина                          : 8 бит
Тип развёртки                            : Прогрессивная
Бит/(Пиксели*Кадры)                      : 0.201
Размер потока                            : 3,48 Гбайт (77%)
Язык                                     : English
Default                                  : Да
Forced                                   : Нет
Цветовой диапазон                        : Limited
Основные цвета                           : BT.709
Характеристики трансфера                 : BT.709
Коэффициенты матрицы                     : BT.709
Аудио #1
Идентификатор                            : 2
Формат                                   : AC-3
Формат/Информация                        : Audio Coding 3
Коммерческое название                    : Dolby Digital
Идентификатор кодека                     : A_AC3
Продолжительность                        : 49 м. 48 с.
Вид битрейта                             : Постоянный
Битрейт                                  : 384 Кбит/сек
Каналы                                   : 2 канала
Channel layout                           : L R
Частота                                  : 48,0 КГц
Частота кадров                           : 31,250 кадров/сек (1536 SPF)
Метод сжатия                             : С потерями
Размер потока                            : 137 Мбайт (3%)
Заголовок                                : LF
Язык                                     : Russian
Service kind                             : Complete Main
Default                                  : Да
Forced                                   : Нет
Аудио #2
Идентификатор                            : 3
Формат                                   : AC-3
Формат/Информация                        : Audio Coding 3
Коммерческое название                    : Dolby Digital
Идентификатор кодека                     : A_AC3
Продолжительность                        : 49 м. 48 с.
Вид битрейта                             : Постоянный
Битрейт                                  : 640 Кбит/сек
Каналы                                   : 6 каналов
Channel layout                           : L R C LFE Ls Rs
Частота                                  : 48,0 КГц
Частота кадров                           : 31,250 кадров/сек (1536 SPF)
Метод сжатия                             : С потерями
Размер потока                            : 228 Мбайт (5%)
Заголовок                                : NS
Язык                                     : Russian
Service kind                             : Complete Main
Default                                  : Нет
Forced                                   : Нет
Аудио #3
Идентификатор                            : 4
Формат                                   : AC-3
Формат/Информация                        : Audio Coding 3
Коммерческое название                    : Dolby Digital
Идентификатор кодека                     : A_AC3
Продолжительность                        : 49 м. 48 с.
Вид битрейта                             : Постоянный
Битрейт                                  : 448 Кбит/сек
Каналы                                   : 6 каналов
Channel layout                           : L R C LFE Ls Rs
Частота                                  : 48,0 КГц
Частота кадров                           : 31,250 кадров/сек (1536 SPF)
Метод сжатия                             : С потерями
Размер потока                            : 160 Мбайт (3%)
Заголовок                                : TVS
Язык                                     : Russian
Service kind                             : Complete Main
Default                                  : Нет
Forced                                   : Нет
Аудио #4
Идентификатор                            : 5
Формат                                   : AC-3
Формат/Информация                        : Audio Coding 3
Коммерческое название                    : Dolby Digital
Идентификатор кодека                     : A_AC3
Продолжительность                        : 49 м. 48 с.
Вид битрейта                             : Постоянный
Битрейт                                  : 192 Кбит/сек
Каналы                                   : 2 канала
Channel layout                           : L R
Частота                                  : 48,0 КГц
Частота кадров                           : 31,250 кадров/сек (1536 SPF)
Метод сжатия                             : С потерями
Размер потока                            : 68,4 Мбайт (1%)
Заголовок                                : HDr
Язык                                     : Russian
Service kind                             : Complete Main
Default                                  : Нет
Forced                                   : Нет
Аудио #5
Идентификатор                            : 6
Формат                                   : AC-3
Формат/Информация                        : Audio Coding 3
Коммерческое название                    : Dolby Digital
Идентификатор кодека                     : A_AC3
Продолжительность                        : 49 м. 48 с.
Вид битрейта                             : Постоянный
Битрейт                                  : 640 Кбит/сек
Каналы                                   : 6 каналов
Channel layout                           : L R C LFE Ls Rs
Частота                                  : 48,0 КГц
Частота кадров                           : 31,250 кадров/сек (1536 SPF)
Метод сжатия                             : С потерями
Размер потока                            : 228 Мбайт (5%)
Заголовок                                : NC
Язык                                     : Russian
Service kind                             : Complete Main
Default                                  : Нет
Forced                                   : Нет
Аудио #6
Идентификатор                            : 7
Формат                                   : E-AC-3 JOC
Формат/Информация                        : Enhanced AC-3 with Joint Object Coding
Коммерческое название                    : Dolby Digital Plus with Dolby Atmos
Идентификатор кодека                     : A_EAC3
Продолжительность                        : 49 м. 48 с.
Вид битрейта                             : Постоянный
Битрейт                                  : 768 Кбит/сек
Каналы                                   : 6 каналов
Channel layout                           : L R C LFE Ls Rs
Частота                                  : 48,0 КГц
Частота кадров                           : 31,250 кадров/сек (1536 SPF)
Метод сжатия                             : С потерями
Размер потока                            : 274 Мбайт (6%)
Заголовок                                : Eng
Язык                                     : English
Service kind                             : Complete Main
Default                                  : Нет
Forced                                   : Нет
Complexity index                         : 16
Number of dynamic objects                : 15
Bed channel count                        : 1 канал
Bed channel configuration                : LFE
Текст #1
Идентификатор                            : 8
Формат                                   : UTF-8
Идентификатор кодека                     : S_TEXT/UTF8
Идентификатор кодека/Информация          : UTF-8 Plain Text
Продолжительность                        : 42 м. 28 с.
Битрейт                                  : 2 бит/сек
Частота кадров                           : 0,011 кадр/сек
Count of elements                        : 29
Размер потока                            : 928 байт (0%)
Заголовок                                : Forc
Язык                                     : Russian
Default                                  : Да
Forced                                   : Нет
Текст #2
Идентификатор                            : 9
Формат                                   : UTF-8
Идентификатор кодека                     : S_TEXT/UTF8
Идентификатор кодека/Информация          : UTF-8 Plain Text
Продолжительность                        : 49 м. 13 с.
Битрейт                                  : 67 бит/сек
Частота кадров                           : 0,183 кадр/сек
Count of elements                        : 542
Размер потока                            : 24,2 Кбайт (0%)
Заголовок                                : Rus
Язык                                     : Russian
Default                                  : Нет
Forced                                   : Нет
Текст #3
Идентификатор                            : 10
Формат                                   : UTF-8
Идентификатор кодека                     : S_TEXT/UTF8
Идентификатор кодека/Информация          : UTF-8 Plain Text
Продолжительность                        : 47 м. 42 с.
Битрейт                                  : 48 бит/сек
Частота кадров                           : 0,186 кадр/сек
Count of elements                        : 533
Размер потока                            : 16,9 Кбайт (0%)
Заголовок                                : Eng
Язык                                     : English
Default                                  : Нет
Forced                                   : Нет
Текст #4
Идентификатор                            : 11
Формат                                   : UTF-8
Идентификатор кодека                     : S_TEXT/UTF8
Идентификатор кодека/Информация          : UTF-8 Plain Text
Продолжительность                        : 48 м. 15 с.
Битрейт                                  : 59 бит/сек
Частота кадров                           : 0,223 кадр/сек
Count of elements                        : 646
Размер потока                            : 21,1 Кбайт (0%)
Заголовок                                : SDH
Язык                                     : English
Default                                  : Нет
Forced                                   : Нет
Текст #5
Идентификатор                            : 12
Формат                                   : UTF-8
Идентификатор кодека                     : S_TEXT/UTF8
Идентификатор кодека/Информация          : UTF-8 Plain Text
Продолжительность                        : 48 м. 15 с.
Битрейт                                  : 55 бит/сек
Частота кадров                           : 0,205 кадр/сек
Count of elements                        : 593
Размер потока                            : 19,5 Кбайт (0%)
Заголовок                                : SDH
Язык                                     : English
Default                                  : Нет
Forced                                   : Нет
Меню
00:00:00.000                             : en:Studio Logo
00:00:08.963                             : en:Main
00:48:26.916                             : en:Credits
При каждом добавлении создаётся новый торрент. Чтобы начать докачку новой серии, пользователям необходимо сделать следующее:
- остановить скачивание;
- удалить старый торрент у себя из клиента (старые серии удалять не надо);
- скачать новый торрент и запустить его у себя в клиенте вместо старого, при этом указать клиенту путь в старую папку, куда и должно происходить скачивание новых серий.

Показать сообщения

Вы не можете начинать темы
Вы не можете отвечать на сообщения
Вы не можете редактировать свои сообщения
Вы не можете удалять свои сообщения
Вы не можете голосовать в опросах
Вы не можете прикреплять файлы к сообщениям
Вы не можете скачивать файлы

Текущее время: 20-Июн 21:35

Часовой пояс: UTC ± 0

Пользовательское соглашение Для правообладателей Реклама на сайте Top.Mail.Ru