Подождите, идет загрузка сайта ...
65
Информация о сериале
Название: Монарх: Наследие монстров
Оригинальное название: Monarch: Legacy of Monsters
Год выхода: 2023
Жанр: Фантастика, боевик, приключения
Режиссер: Майрзи Алмас, Джулиан Холмс, Хироми Камата--В ролях: Кристофер Хейердал, Мари Ямамото, Джесс Салгейру, Кёко Саито, Доминик Типпер, Сёта Цудзи, Курт Рассел, Джош Коллинз, Чарли Хьюсон, Дзюнъити Тадзири--О сериале: Пережив нападение Годзиллы на Сан-Франциско, Кейт в очередной раз потрясена шокирующей тайной. Она отправляется в путешествие по миру, чтобы узнать правду о своей семье и таинственной организации, известной как «Монарх».--picpicpic--Страна: США, Япония
Студия: Apple TV+
Продолжительность: ~00:45:00 серия
Перевод: Профессиональный (многоголосый закадровый) | HDRezka Studio--Файл
Кодек: H.264
Качество: WEB-DL 720p
Видео: MPEG-4 AVC, ~ 2815 Kбит/с, 1280x720
Звук № 1: AC3, 192 kbps (CBR), 48.0 KHz (16 bits), 2 ch, Russian MVO [HDRezka Studio]
Звук № 2: Е-AC3, 768 kbps (CBR), 48.0 KHz (16 bits), 6 ch, English - Английский
Субтитры: Русские (Forced , Full), английские--
17 ноября 2023 - 1 и 2 серии;
24 ноября 2023 - 3 серия;
1 декабря 2023 - 4 серия;
8 декабря 2023 - 5 серия;
15 декабря 2023 - 6 серия;
22 декабря 2023 - 7 серия;
29 декабря 2023 - 8 серия;
5 января 2024 - 9 серия;
12 января 2024 - 10 серия.
Общее
Уникальный идентификатор : 271345676505918027414825829574462994055 (0xCC2346BFF0B4F6CF7967DF468B78F687)
Полное имя : E:\сериалы\Monarch.Legacy.of.Monsters.S01.720p\Monarch.Legacy.of.Monsters.S01E01.720p.mkv
Формат : Matroska
Версия формата : Version 4
Размер файла : 1,31 Гбайт
Продолжительность : 49 м. 48 с.
Общий поток : 3 778 Кбит/сек
Дата кодирования : UTC 2023-11-18 06:34:17
Программа кодирования : mkvmerge v35.0.0 ('All The Love In The World') 64-bit
Библиотека кодирования : libebml v1.3.9 + libmatroska v1.5.2
Видео
Идентификатор : 1
Формат : AVC
Формат/Информация : Advanced Video Codec
Профиль формата : [email protected]
Настройки формата : CABAC / 5 Ref Frames
Параметр CABAC формата : Да
Параметр RefFrames формата : 5 кадров
Идентификатор кодека : V_MPEG4/ISO/AVC
Продолжительность : 49 м. 48 с.
Битрейт : 2 815 Кбит/сек
Ширина : 1 280 пикселей
Высота : 720 пикселей
Соотношение сторон : 16:9
Режим частоты кадров : Постоянный
Частота кадров : 23,976 (24000/1001) кадра/сек
Цветовое пространство : YUV
Субдискретизация насыщенности : 4:2:0
Битовая глубина : 8 бит
Тип развёртки : Прогрессивная
Бит/(Пиксели*Кадры) : 0.127
Размер потока : 1 003 Мбайт (75%)
Язык : English
Default : Да
Forced : Нет
Цветовой диапазон : Limited
Основные цвета : BT.709
Характеристики трансфера : BT.709
Коэффициенты матрицы : BT.709
Аудио #1
Идентификатор : 2
Формат : AC-3
Формат/Информация : Audio Coding 3
Коммерческое название : Dolby Digital
Идентификатор кодека : A_AC3
Продолжительность : 49 м. 48 с.
Вид битрейта : Постоянный
Битрейт : 192 Кбит/сек
Каналы : 2 канала
Channel layout : L R
Частота : 48,0 КГц
Частота кадров : 31,250 кадров/сек (1536 SPF)
Метод сжатия : С потерями
Размер потока : 68,4 Мбайт (5%)
Заголовок : HDR
Язык : Russian
Service kind : Complete Main
Default : Да
Forced : Нет
Аудио #2
Идентификатор : 3
Формат : E-AC-3 JOC
Формат/Информация : Enhanced AC-3 with Joint Object Coding
Коммерческое название : Dolby Digital Plus with Dolby Atmos
Идентификатор кодека : A_EAC3
Продолжительность : 49 м. 48 с.
Вид битрейта : Постоянный
Битрейт : 768 Кбит/сек
Каналы : 6 каналов
Channel layout : L R C LFE Ls Rs
Частота : 48,0 КГц
Частота кадров : 31,250 кадров/сек (1536 SPF)
Метод сжатия : С потерями
Размер потока : 274 Мбайт (20%)
Язык : English
Service kind : Complete Main
Default : Нет
Forced : Нет
Complexity index : 16
Number of dynamic objects : 15
Bed channel count : 1 канал
Bed channel configuration : LFE
Текст #1
Идентификатор : 4
Формат : UTF-8
Идентификатор кодека : S_TEXT/UTF8
Идентификатор кодека/Информация : UTF-8 Plain Text
Продолжительность : 43 м. 56 с.
Битрейт : 8 бит/сек
Count of elements : 66
Размер потока : 2,84 Кбайт (0%)
Заголовок : fors
Язык : Russian
Default : Да
Forced : Нет
Текст #2
Идентификатор : 5
Формат : UTF-8
Идентификатор кодека : S_TEXT/UTF8
Идентификатор кодека/Информация : UTF-8 Plain Text
Продолжительность : 49 м. 13 с.
Битрейт : 66 бит/сек
Count of elements : 542
Размер потока : 24,0 Кбайт (0%)
Заголовок : Русский
Язык : Russian
Default : Нет
Forced : Нет
Текст #3
Идентификатор : 6
Формат : UTF-8
Идентификатор кодека : S_TEXT/UTF8
Идентификатор кодека/Информация : UTF-8 Plain Text
Продолжительность : 40 м. 58 с.
Битрейт : 5 бит/сек
Count of elements : 72
Размер потока : 1,72 Кбайт (0%)
Заголовок : English (forced)
Язык : English
Default : Нет
Forced : Нет
Текст #4
Идентификатор : 7
Формат : UTF-8
Идентификатор кодека : S_TEXT/UTF8
Идентификатор кодека/Информация : UTF-8 Plain Text
Продолжительность : 47 м. 42 с.
Битрейт : 47 бит/сек
Count of elements : 533
Размер потока : 16,7 Кбайт (0%)
Заголовок : English
Язык : English
Default : Нет
Forced : Нет
Текст #5
Идентификатор : 8
Формат : UTF-8
Идентификатор кодека : S_TEXT/UTF8
Идентификатор кодека/Информация : UTF-8 Plain Text
Продолжительность : 48 м. 15 с.
Битрейт : 58 бит/сек
Count of elements : 646
Размер потока : 20,8 Кбайт (0%)
Заголовок : English (SDH)
Язык : English
Default : Нет
Forced : Нет
-pic

Показать сообщения

Вы не можете начинать темы
Вы не можете отвечать на сообщения
Вы не можете редактировать свои сообщения
Вы не можете удалять свои сообщения
Вы не можете голосовать в опросах
Вы не можете прикреплять файлы к сообщениям
Вы не можете скачивать файлы

Текущее время: 12-Июн 22:29

Часовой пояс: UTC ± 0

Пользовательское соглашение Для правообладателей Реклама на сайте Top.Mail.Ru