Подождите, идет загрузка сайта ...
2
Мистер и Миссис Икс / Killing romaenseu / Killing Romance- Год выпуска: 2023
Страна: Корея Южная
Жанр: комедия, мелодрама
Продолжительность: 01:46:01
Перевод: Профессиональный (дублированный) Leff Sound
Субтитры: Русские, английские, вьетнамские
Режиссер: Ли Вон-сок
В ролях: Ли Ха-ни, Ли Сон-гюн, Кон Мён, Пэ Ю-рам, Эндрю Бишоп, Щим Даль-ги, Дэбби Рейд, Пэк Хён-ми, Пэк Хён-сук, Чхве Джун-гю-Качество: WEB-DL 1080p
Формат: MKV
Видео кодек: AVC
Аудио кодек: E-AC3
Видео: AVC, 1920 x 804, ~6000 kbps, 24,000 fps
Аудио 1: E-AC3, 6 ch, 48 kHz, 448 kbps RUS
Аудио 2: E-AC3, 6 ch, 48 kHz, 640 kbps KOR-Описание: Популярная и невероятно загруженная работой актриса Хван Ё-рэ мечтала отдохнуть и отправилась в отпуск на тихий остров, где внезапно встретила эксцентричного миллионера Джонатана На. Любовь с первого взгляда, свадьба, и девушка осталась жить в его особняке на том самом острове. Семь лет спустя Джонатан и Ё-рэ приезжают в Сеул по делам, и теперь его некогда блистательная супруга напоминает свою бледную тень — забитой и подавленной мужем женщине не только запрещено перечить и сниматься, но и даже съесть лишнюю канапешку. Случайно узнав, что по соседству с их резиденцией живёт большой фанат её творчества, Ё-рэ с его помощью начинает планировать убийство мужа.
General
Unique ID                      : 256043049037073765536247153131216155253 (0xC0A018F705DF9484252EBDFC0DC3B275)
Complete name                  : F:\Torrents\Killing.Romance.2023.1080p.WEB-DL-AsiaOne-Kyle.mkv
Format                         : Matroska
Format version                 : Version 4
File size                      : 5.21 GiB
Duration                       : 1 h 46 min
Overall bit rate               : 7 031 kb/s
Frame rate                     : 24.000 FPS
Encoded date                   : 2024-01-15 08:59:02 UTC
Writing application            : mkvmerge v82.0 ('I'm The President') 64-bit
Writing library                : libebml v1.4.5 + libmatroska v1.7.1
Video
ID                             : 1
Format                         : AVC
Format/Info                    : Advanced Video Codec
Format profile                 : Progressive High@L4
Format settings                : CABAC / 5 Ref Frames
Format settings, CABAC         : Yes
Format settings, Reference fra : 5 frames
Codec ID                       : V_MPEG4/ISO/AVC
Duration                       : 1 h 45 min
Bit rate                       : 6 000 kb/s
Width                          : 1 920 pixels
Height                         : 804 pixels
Display aspect ratio           : 2.39:1
Frame rate mode                : Constant
Frame rate                     : 24.000 FPS
Color space                    : YUV
Chroma subsampling             : 4:2:0
Bit depth                      : 8 bits
Scan type                      : Progressive
Bits/(Pixel*Frame)             : 0.162
Stream size                    : 4.40 GiB (85%)
Writing library                : x264 core 157
Encoding settings              : cabac=1 / ref=5 / deblock=1:0:0 / analyse=0x3:0x133 / me=umh / subme=10 / psy=1 / psy_rd=1.00:0.00 / mixed_ref=1 / me_range=24 / chroma_me=1 / trellis=2 / 8x8dct=1 / cqm=0 / deadzone=21,11 / fast_pskip=1 / chroma_qp_offset=-2 / threads=25 / lookahead_threads=4 / sliced_threads=0 / nr=0 / decimate=1 / interlaced=0 / bluray_compat=0 / stitchable=1 / constrained_intra=0 / bframes=8 / b_pyramid=2 / b_adapt=2 / b_bias=0 / direct=3 / weightb=1 / open_gop=0 / weightp=2 / keyint=250 / keyint_min=24 / scenecut=40 / intra_refresh=0 / rc_lookahead=60 / rc=2pass / mbtree=1 / bitrate=6000 / ratetol=1.0 / qcomp=0.60 / qpmin=0 / qpmax=69 / qpstep=4 / cplxblur=20.0 / qblur=0.5 / vbv_maxrate=6600 / vbv_bufsize=12000 / nal_hrd=none / filler=0 / ip_ratio=1.40 / aq=1:1.00
Default                        : Yes
Forced                         : No
Audio #1
ID                             : 2
Format                         : E-AC-3
Format/Info                    : Enhanced AC-3
Commercial name                : Dolby Digital Plus
Codec ID                       : A_EAC3
Duration                       : 1 h 45 min
Bit rate mode                  : Constant
Bit rate                       : 448 kb/s
Channel(s)                     : 6 channels
Channel layout                 : L R C LFE Ls Rs
Sampling rate                  : 48.0 kHz
Frame rate                     : 31.250 FPS (1536 SPF)
Compression mode               : Lossy
Stream size                    : 338 MiB (6%)
Title                          : Russian
Language                       : Russian
Service kind                   : Complete Main
Default                        : Yes
Forced                         : No
Audio #2
ID                             : 3
Format                         : E-AC-3
Format/Info                    : Enhanced AC-3
Commercial name                : Dolby Digital Plus
Codec ID                       : A_EAC3
Duration                       : 1 h 46 min
Bit rate mode                  : Constant
Bit rate                       : 640 kb/s
Channel(s)                     : 6 channels
Channel layout                 : L R C LFE Ls Rs
Sampling rate                  : 48.0 kHz
Frame rate                     : 31.250 FPS (1536 SPF)
Compression mode               : Lossy
Stream size                    : 485 MiB (9%)
Title                          : Korean
Language                       : Korean
Service kind                   : Complete Main
Default                        : No
Forced                         : No
Text #1
ID                             : 4
Format                         : UTF-8
Codec ID                       : S_TEXT/UTF8
Codec ID/Info                  : UTF-8 Plain Text
Duration                       : 1 h 39 min
Bit rate                       : 63 b/s
Frame rate                     : 0.207 FPS
Count of elements              : 1228
Stream size                    : 45.8 KiB (0%)
Title                          : Russian
Language                       : Russian
Default                        : No
Forced                         : No
Text #2
ID                             : 5
Format                         : UTF-8
Codec ID                       : S_TEXT/UTF8
Codec ID/Info                  : UTF-8 Plain Text
Duration                       : 1 h 44 min
Bit rate                       : 35 b/s
Frame rate                     : 0.165 FPS
Count of elements              : 1031
Stream size                    : 27.0 KiB (0%)
Title                          : English
Language                       : English
Default                        : No
Forced                         : No
Text #3
ID                             : 6
Format                         : UTF-8
Codec ID                       : S_TEXT/UTF8
Codec ID/Info                  : UTF-8 Plain Text
Duration                       : 1 h 44 min
Bit rate                       : 57 b/s
Frame rate                     : 0.185 FPS
Count of elements              : 1162
Stream size                    : 44.4 KiB (0%)
Title                          : Vietnamese
Language                       : Vietnamese
Default                        : No
Forced                         : No

Показать сообщения

Вы не можете начинать темы
Вы не можете отвечать на сообщения
Вы не можете редактировать свои сообщения
Вы не можете удалять свои сообщения
Вы не можете голосовать в опросах
Вы не можете прикреплять файлы к сообщениям
Вы не можете скачивать файлы

Текущее время: 16-Июн 16:05

Часовой пояс: UTC ± 0

Пользовательское соглашение Для правообладателей Реклама на сайте Top.Mail.Ru