Подождите, идет загрузка сайта ...
2
Месье Спейд | Monsieur Spade-
Год выпуска: 2024
Страна: США
Жанр: детектив, триллер, криминал, драма
Продолжительность: ~ 01:06:00
Сезон: 1 сезон
Серии: 1 - 3 серия из 6
Перевод 1: Профессиональный (многоголосый) Novamedia
Перевод 2: Профессиональный (многоголосый) HDRezka Studio
Субтитры: Русские (Full), английские (Full, SDH)
Режиссер: Скотт Фрэнк
В ролях: Клайв Оуэн, Дени Меноше, Луиза Бургуа, Кьяра Мастроянни, Ребекка Рут, Мэттью Бирд, Стэнли Вебер, Клотильда Молле, Жонатан Заккаи, Оскар Лесаж, Венсан Немет, Альфре Вудард, Дин Уинтерс, Ян Тюаль, Кара Боссом-Качество: WEB-DL 1080p
Формат: MKV
Видео кодек: AVC
Аудио кодек: AC3, E-AC3
Видео: AVC, 1920 x 1040, ~7814 Kbps, 23.976 fps
Аудио 1: AC3, 6 ch, 48 kHz, 384 kbps Novamedia
Аудио 2: AC3, 2 ch, 48 kHz, 192 kbps HDRezka Studio
Аудио 3: E-AC3, 6 ch, 48 kHz, 640 kbps English-Описание:
Главный герой детективного ретро-сериала, действие которого происходит во Франции в 1963 году, – Сэм Спейд. С прошлого дела прошло более 20 лет, но разве такой персонаж будет скучно проводить старость недалеко от Лазурного берега в окрестностях городка Бозуль? В местном монастыре кто-то убивает шестерых монахинь. Спейд, сменивший привычное ему обращение «мистер» на «месье», берется за это дело, даже не подозревая, как тьма сгущается над ним. И пока горожане скорбят о погибших, всплывают всё новые и новые секреты, появляются зацепки и вереница подозреваемых. А Сэм тем временем узнает, что убийства каким-то образом связаны с удивительным ребенком, который, как считают монахини, обладает невероятными способностями.
General
Unique ID : 55410347305124521283721540831278327045 (0x29AFA50BBD5CE864A3DD907F6E74E505)
Complete name : /Users/tori/Downloads/Monsieur.Spade.S01.1080p.WEB-DL.H264/Monsieur.Spade.S01E01.1080p.WEB-DL.H264.mkv
Format : Matroska
Format version : Version 4
File size : 4.17 GiB
Duration : 1 h 6 min
Overall bit rate : 9 014 kb/s
Frame rate : 23.976 FPS
Encoded date : 2024-01-15 19:17:42 UTC
Writing application : mkvmerge v82.0 ('I'm The President') 64-bit
Writing library : libebml v1.4.5 + libmatroska v1.7.1
Video
ID : 1
Format : AVC
Format/Info : Advanced Video Codec
Format profile : High@L4
Format settings : CABAC / 4 Ref Frames
Format settings, CABAC : Yes
Format settings, Reference frames : 4 frames
Codec ID : V_MPEG4/ISO/AVC
Duration : 1 h 6 min
Bit rate mode : Constant
Bit rate : 7 814 kb/s
Nominal bit rate : 10 000 kb/s
Width : 1 920 pixels
Height : 1 040 pixels
Display aspect ratio : 1.85:1
Original display aspect ratio : 1.85:1
Frame rate mode : Constant
Frame rate : 23.976 (24000/1001) FPS
Color space : YUV
Chroma subsampling : 4:2:0
Bit depth : 8 bits
Scan type : Progressive
Bits/(Pixel*Frame) : 0.163
Stream size : 3.61 GiB (87%)
Default : Yes
Forced : No
Color range : Limited
Color primaries : BT.709
Transfer characteristics : BT.709
Matrix coefficients : BT.709
Audio #1
ID : 2
Format : AC-3
Format/Info : Audio Coding 3
Commercial name : Dolby Digital
Codec ID : A_AC3
Duration : 1 h 6 min
Bit rate mode : Constant
Bit rate : 384 kb/s
Channel(s) : 6 channels
Channel layout : L R C LFE Ls Rs
Sampling rate : 48.0 kHz
Frame rate : 31.250 FPS (1536 SPF)
Compression mode : Lossy
Stream size : 182 MiB (4%)
Title : MVO [Novamedia]
Language : Russian
Service kind : Complete Main
Default : Yes
Forced : No
Audio #2
ID : 3
Format : AC-3
Format/Info : Audio Coding 3
Commercial name : Dolby Digital
Codec ID : A_AC3
Duration : 1 h 6 min
Bit rate mode : Constant
Bit rate : 192 kb/s
Channel(s) : 2 channels
Channel layout : L R
Sampling rate : 48.0 kHz
Frame rate : 31.250 FPS (1536 SPF)
Compression mode : Lossy
Stream size : 90.8 MiB (2%)
Title : MVO [HDRezka]
Language : Russian
Service kind : Complete Main
Default : No
Forced : No
Audio #3
ID : 4
Format : E-AC-3
Format/Info : Enhanced AC-3
Commercial name : Dolby Digital Plus
Codec ID : A_EAC3
Duration : 1 h 6 min
Bit rate mode : Constant
Bit rate : 640 kb/s
Channel(s) : 6 channels
Channel layout : L R C LFE Ls Rs
Sampling rate : 48.0 kHz
Frame rate : 31.250 FPS (1536 SPF)
Compression mode : Lossy
Stream size : 303 MiB (7%)
Title : Original
Language : English (US)
Service kind : Complete Main
Default : No
Forced : No
Text #1
ID : 5
Format : UTF-8
Codec ID : S_TEXT/UTF8
Codec ID/Info : UTF-8 Plain Text
Duration : 1 h 1 min
Bit rate : 91 b/s
Frame rate : 0.197 FPS
Count of elements : 725
Stream size : 40.9 KiB (0%)
Title : Full [Amediateka]
Language : Russian
Default : No
Forced : No
Text #2
ID : 6
Format : UTF-8
Codec ID : S_TEXT/UTF8
Codec ID/Info : UTF-8 Plain Text
Duration : 1 h 2 min
Bit rate : 49 b/s
Frame rate : 0.198 FPS
Count of elements : 745
Stream size : 22.8 KiB (0%)
Title : Full
Language : English (US)
Default : No
Forced : No
Text #3
ID : 7
Format : UTF-8
Codec ID : S_TEXT/UTF8
Codec ID/Info : UTF-8 Plain Text
Duration : 1 h 6 min
Bit rate : 53 b/s
Frame rate : 0.234 FPS
Count of elements : 928
Stream size : 25.9 KiB (0%)
Title : SDH
Language : English (US)
Default : No
Forced : No

Показать сообщения

Вы не можете начинать темы
Вы не можете отвечать на сообщения
Вы не можете редактировать свои сообщения
Вы не можете удалять свои сообщения
Вы не можете голосовать в опросах
Вы не можете прикреплять файлы к сообщениям
Вы не можете скачивать файлы

Текущее время: 12-Июн 19:40

Часовой пояс: UTC ± 0

Пользовательское соглашение Для правообладателей Реклама на сайте Top.Mail.Ru