Подождите, идет загрузка сайта ...
2
Мастер и Маргарита- Год выпуска: 2023
Страна: Россия
Жанр: Драма, фэнтези
Продолжительность: 02:33:52
Перевод : не требуется
Субтитры: Русские
Режиссер: Михаил Локшин
Продюсер: Рубен Дишдишян, Анатолий Акименко, Игорь Толстунов
В ролях: Аугуст Диль, Евгений Цыганов, Юлия Снигирь, Юрий Колокольников, Алексей Розин, Кеша, Полина Ауг, Евгений Князев, Данил Стеклов, Марат Башаров-Качество: WEB-DL 1080p
Формат: MKV
Видео кодек: AVC
Аудио кодек: AC3, E-AC3
Видео: AVC, 1920 х 804, 10 000 kb/s, 24.000 fps
Аудио 1: AC3, 6 ch, 48 kHz, 384 kbps | Русский
Аудио 2: E-AC3, 6 ch, 48 kHz, 384 kbps | Русский-Описание: Москва, 1930-е годы. Известный писатель на взлёте своей карьеры внезапно оказывается в центре литературного скандала. Спектакль по его пьесе снимают с репертуара, коллеги демонстративно избегают встречи, в считанные дни он превращается в изгоя. Вскоре после этого, он знакомится с Маргаритой, которая становится его возлюбленной и музой. Воодушевлённый ее любовью и поддержкой, писатель берется за новый роман, в котором персонажи — это люди из его окружения, а главный герой — загадочный Воланд, прообразом которого становится недавний знакомый иностранец. Писатель уходит с головой в мир своего романа и постепенно перестает замечать, как вымысел и реальность сплетаются в одно целое.
General
Unique ID                      : 245155519654599805506215280346499291345 (0xB86F3C527977AEC8B75E2D85B3FE98D1)
Complete name                  : F:\Torrents\М. и М. 2023.(1080р).mkv
Format                         : Matroska
Format version                 : Version 2
File size                      : 11.8 GiB
Duration                       : 2 h 36 min
Overall bit rate               : 10.8 Mb/s
Frame rate                     : 24.000 FPS
Movie name                     : М. и М. 2023.
Encoded date                   : 2024-05-08 09:37:54 UTC
Writing application            : mkvmerge v5.8.0 ('No Sleep / Pillow') built on Sep  2 2012 15:37:04
Writing library                : libebml v1.2.3 + libmatroska v1.3.0
Video
ID                             : 1
Format                         : AVC
Format/Info                    : Advanced Video Codec
Format profile                 : [email protected]
Format settings                : CABAC / 5 Ref Frames
Format settings, CABAC         : Yes
Format settings, Reference fra : 5 frames
Codec ID                       : V_MPEG4/ISO/AVC
Duration                       : 2 h 36 min
Bit rate                       : 10 000 kb/s
Width                          : 1 920 pixels
Height                         : 804 pixels
Display aspect ratio           : 2.40:1
Frame rate mode                : Constant
Frame rate                     : 24.000 FPS
Color space                    : YUV
Chroma subsampling             : 4:2:0
Bit depth                      : 8 bits
Scan type                      : Progressive
Bits/(Pixel*Frame)             : 0.270
Stream size                    : 10.7 GiB (91%)
Writing library                : x264 core 164 r3106+55M 24adf88 t_mod_New [(8 & 10)-bit@all X86_64]
Encoding settings              : cabac=1 / ref=5 / deblock=1:-3:-3 / analyse=0x3:0x113 / me=umh / subme=11 / psy=1 / fade_compensate=0.00 / psy_rd=1.00:0.00 / mixed_ref=1 / me_range=48 / chroma_me=1 / trellis=2 / 8x8dct=1 / cqm=0 / deadzone=21,11 / fast_pskip=0 / chroma_qp_offset=-2 / threads=12 / lookahead_threads=3 / sliced_threads=0 / nr=0 / decimate=0 / interlaced=0 / bluray_compat=0 / constrained_intra=0 / fgo=0 / bframes=11 / b_pyramid=2 / b_adapt=2 / b_bias=0 / direct=3 / weightb=1 / open_gop=0 / weightp=2 / keyint=240 / keyint_min=24 / scenecut=40 / intra_refresh=0 / rc_lookahead=40 / rc=2pass / mbtree=0 / bitrate=10000 / ratetol=1.0 / qcomp=0.60 / qpmin=0:0:0 / qpmax=39:39:39 / qpstep=4 / cplxblur=20.0 / qblur=0.5 / vbv_maxrate=50000 / vbv_bufsize=62500 / nal_hrd=none / filler=0 / ip_ratio=1.25 / pb_ratio=1.30 / aq=1:0.70 / aq-sensitivity=10.00 / aq-factor=1.00:1.00:1.00 / aq2=0 / aq3=0
Language                       : English
Default                        : Yes
Forced                         : No
Color range                    : Limited
Color primaries                : BT.709
Transfer characteristics       : BT.709
Matrix coefficients            : BT.709
Audio #1
ID                             : 2
Format                         : AC-3
Format/Info                    : Audio Coding 3
Commercial name                : Dolby Digital
Codec ID                       : A_AC3
Duration                       : 2 h 36 min
Bit rate mode                  : Constant
Bit rate                       : 384 kb/s
Channel(s)                     : 6 channels
Channel layout                 : L R C LFE Ls Rs
Sampling rate                  : 48.0 kHz
Frame rate                     : 31.250 FPS (1536 SPF)
Compression mode               : Lossy
Stream size                    : 430 MiB (4%)
Language                       : Russian
Service kind                   : Complete Main
Default                        : Yes
Forced                         : No
Audio #2
ID                             : 3
Format                         : E-AC-3
Format/Info                    : Enhanced AC-3
Commercial name                : Dolby Digital Plus
Codec ID                       : A_EAC3
Duration                       : 2 h 36 min
Bit rate mode                  : Constant
Bit rate                       : 384 kb/s
Channel(s)                     : 6 channels
Channel layout                 : L R C LFE Ls Rs
Sampling rate                  : 48.0 kHz
Frame rate                     : 31.250 FPS (1536 SPF)
Compression mode               : Lossy
Stream size                    : 430 MiB (4%)
Language                       : Russian
Service kind                   : Complete Main
Default                        : No
Forced                         : No
Text
ID                             : 4
Format                         : UTF-8
Codec ID                       : S_TEXT/UTF8
Codec ID/Info                  : UTF-8 Plain Text
Language                       : Russian
Default                        : No
Forced                         : No

Показать сообщения

Вы не можете начинать темы
Вы не можете отвечать на сообщения
Вы не можете редактировать свои сообщения
Вы не можете удалять свои сообщения
Вы не можете голосовать в опросах
Вы не можете прикреплять файлы к сообщениям
Вы не можете скачивать файлы

Текущее время: 23-Июн 08:48

Часовой пояс: UTC ± 0

Пользовательское соглашение Для правообладателей Реклама на сайте Top.Mail.Ru