Подождите, идет загрузка сайта ...
2
Мастер и Маргарита- Год выпуска: 2023
Страна: Россия
Жанр: Драма, фэнтези
Продолжительность: 02:33:52
Перевод : не требуется
Субтитры: нет
Режиссер: Михаил Локшин
Продюсер: Рубен Дишдишян, Анатолий Акименко, Игорь Толстунов
В ролях: Аугуст Диль, Евгений Цыганов, Юлия Снигирь, Юрий Колокольников, Алексей Розин, Кеша, Полина Ауг, Евгений Князев, Данил Стеклов, Марат Башаров-Качество: CamRip 1080p
Формат: MKV
Видео кодек: AVC
Аудио кодек: AC3, E-AC3
Видео: AVC/H.264, 1280x532, ~4500 Kbps, 25,000 кад/сек
Аудио: AC3, 2 ch, 256 Kbps, 48.0 kHz [русский]-Описание: Москва, 1930-е годы. Известный писатель на взлёте своей карьеры внезапно оказывается в центре литературного скандала. Спектакль по его пьесе снимают с репертуара, коллеги демонстративно избегают встречи, в считанные дни он превращается в изгоя. Вскоре после этого, он знакомится с Маргаритой, которая становится его возлюбленной и музой. Воодушевлённый ее любовью и поддержкой, писатель берется за новый роман, в котором персонажи — это люди из его окружения, а главный герой — загадочный Воланд, прообразом которого становится недавний знакомый иностранец. Писатель уходит с головой в мир своего романа и постепенно перестает замечать, как вымысел и реальность сплетаются в одно целое.
Общее
Уникальный идентификатор                 : 43800567710303233016347866256973427105 (0x20F3AEB7E3EAFE3C8461D1C7591EF1A1)
Полное имя                               : G:\Фильмы\Мастер и Маргарита (2024).mkv
Формат                                   : Matroska
Версия формата                           : Version 4
Размер файла                             : 5,11 Гбайт
Продолжительность                        : 2 ч. 33 м.
Общий поток                              : 4 759 Кбит/сек
Частота кадров                           : 25,000 кадров/сек
Дата кодирования                         : 2024-01-29 19:22:12 UTC
Программа кодирования                    : HandBrake 1.7.2 2023122400
Библиотека кодирования                   : Lavf60.16.100
ErrorDetectionType                       : Per level 1
Видео
Идентификатор                            : 1
Формат                                   : AVC
Формат/Информация                        : Advanced Video Codec
Профиль формата                          : [email protected]
Настройки формата                        : CABAC / 5 Ref Frames
Параметр CABAC формата                   : Да
Параметр RefFrames формата               : 5 кадров
Идентификатор кодека                     : V_MPEG4/ISO/AVC
Продолжительность                        : 2 ч. 33 м.
Битрейт                                  : 4 500 Кбит/сек
Ширина                                   : 1 280 пикселей
Высота                                   : 532 пикселя
Соотношение сторон                       : 2,40:1
Режим частоты кадров                     : Постоянный
Частота кадров                           : 25,000 кадров/сек
Цветовое пространство                    : YUV
Субдискретизация насыщенности            : 4:2:0
Битовая глубина                          : 8 бит
Тип развёртки                            : Прогрессивная
Бит/(Пиксели*Кадры)                      : 0.264
Размер потока                            : 4,74 Гбайт (93%)
Библиотека кодирования                   : x264 core 164 r3107 a8b68ebf
Настройки программы                      : cabac=1 / ref=5 / deblock=1:0:0 / analyse=0x3:0x113 / me=hex / subme=8 / psy=1 / psy_rd=1.00:0.00 / mixed_ref=1 / me_range=16 / chroma_me=1 / trellis=2 / 8x8dct=1 / cqm=0 / deadzone=21,11 / fast_pskip=1 / chroma_qp_offset=-2 / threads=9 / lookahead_threads=1 / sliced_threads=0 / nr=0 / decimate=1 / interlaced=0 / bluray_compat=0 / constrained_intra=0 / bframes=3 / b_pyramid=2 / b_adapt=1 / b_bias=0 / direct=3 / weightb=1 / open_gop=0 / weightp=2 / keyint=250 / keyint_min=25 / scenecut=40 / intra_refresh=0 / rc_lookahead=50 / rc=2pass / mbtree=1 / bitrate=4500 / ratetol=1.0 / qcomp=0.60 / qpmin=0 / qpmax=69 / qpstep=4 / cplxblur=20.0 / qblur=0.5 / vbv_maxrate=17500 / vbv_bufsize=17500 / nal_hrd=none / filler=0 / ip_ratio=1.40 / aq=1:1.00
Default                                  : Да
Forced                                   : Нет
Цветовой диапазон                        : Limited
Основные цвета                           : BT.709
Характеристики трансфера                 : BT.709
Коэффициенты матрицы                     : BT.709
Аудио
Идентификатор                            : 2
Формат                                   : AC-3
Формат/Информация                        : Audio Coding 3
Коммерческое название                    : Dolby Digital
Идентификатор кодека                     : A_AC3
Продолжительность                        : 2 ч. 33 м.
Вид битрейта                             : Постоянный
Битрейт                                  : 256 Кбит/сек
Каналы                                   : 2 канала
Channel layout                           : L R
Частота                                  : 48,0 КГц
Частота кадров                           : 31,250 кадров/сек (1536 SPF)
Метод сжатия                             : С потерями
Размер потока                            : 282 Мбайт (5%)
Заголовок                                : Stereo
Service kind                             : Complete Main
Default                                  : Да
Forced                                   : Нет

Показать сообщения

Вы не можете начинать темы
Вы не можете отвечать на сообщения
Вы не можете редактировать свои сообщения
Вы не можете удалять свои сообщения
Вы не можете голосовать в опросах
Вы не можете прикреплять файлы к сообщениям
Вы не можете скачивать файлы

Текущее время: 23-Июн 08:50

Часовой пояс: UTC ± 0

Пользовательское соглашение Для правообладателей Реклама на сайте Top.Mail.Ru