Подождите, идет загрузка сайта ...
2
Мастер Чиф. Часть первая / The Master Chief: Part One- Год выпуска: 2023
Страна: США
Жанр: Драма
Продолжительность: 01:30:42
Перевод : Многоголосый любительский [Синема УС]
Субтитры: Отсутствуют
Режиссер: Крис Сориано
В ролях: Крис Сориано, Джон Авит, Райан Бэрриер, Wyll Dickenson, Dan Hwang, Dillon Kivo, Peter Laboy, Christina Ledo, Mikaylee Mina, Warren Mitchell-Качество: WEBRip 1080p
Формат: MKV
Видео кодек: AVC
Аудио кодек: AC3
Видео: AVC/H.264, 1920x872, ~5968 Kbps, 23,976 кад/сек
Аудио: AC3, 2 ch, 384 Kbps, 48.0 kHz [русский]-Описание: Молодой филиппинский моряк сталкивается с суровой реальностью расовой напряженности на борту военного корабля. Фильм исследует преступный мир так называемой «филиппинской мафии» и изобретательность одного из сплоченных сообществ ВМФ.
Общее
Полное имя                               : G:\Фильмы\The.Master.Chief.Part.One.2023.WEBRip.1080p.mkv
Формат                                   : Matroska
Версия формата                           : Version 2
Размер файла                             : 4,11 Гбайт
Продолжительность                        : 1 ч. 30 м.
Режим общего битрейта                    : Постоянный
Общий поток                              : 6 481 Кбит/сек
Частота кадров                           : 23,976 кадра/сек
Программа кодирования                    : libmatroska 1.4.1
Библиотека кодирования                   : SolveigMM Matroska Muxer Version 1.0.2010.29
Видео
Идентификатор                            : 1
Формат                                   : AVC
Формат/Информация                        : Advanced Video Codec
Профиль формата                          : [email protected]
Настройки формата                        : CABAC / 4 Ref Frames
Параметр CABAC формата                   : Да
Параметр RefFrames формата               : 4 кадра
Идентификатор кодека                     : V_MPEG4/ISO/AVC
Продолжительность                        : 1 ч. 30 м.
Вид битрейта                             : Постоянный
Битрейт                                  : 5 968 Кбит/сек
Номинальный битрейт                      : 7 000 Кбит/сек
Ширина                                   : 1 920 пикселей
Высота                                   : 872 пикселя
Соотношение сторон                       : 2,2:1
Режим частоты кадров                     : Постоянный
Частота кадров                           : 23,976 (24000/1001) кадра/сек
Стандарт вещания                         : Component
Цветовое пространство                    : YUV
Субдискретизация насыщенности            : 4:2:0
Битовая глубина                          : 8 бит
Тип развёртки                            : Прогрессивная
Бит/(Пиксели*Кадры)                      : 0.149
Размер потока                            : 3,78 Гбайт (92%)
Библиотека кодирования                   : x264 core 155
Настройки программы                      : cabac=1 / ref=4 / deblock=1:0:0 / analyse=0x3:0x3 / me=dia / subme=1 / psy=1 / psy_rd=1.00:0.00 / mixed_ref=0 / me_range=16 / chroma_me=1 / trellis=0 / 8x8dct=1 / cqm=1 / deadzone=21,11 / fast_pskip=1 / chroma_qp_offset=0 / threads=27 / lookahead_threads=4 / sliced_threads=0 / slices=1 / nr=0 / decimate=1 / interlaced=0 / minigop=0 / stitchable=1 / constrained_intra=0 / bframes=0 / weightp=0 / keyint=240 / keyint_min=23 / scenecut=0 / intra_refresh=0 / rc_lookahead=0 / rc=cbr / mbtree=0 / bitrate=7000 / ratetol=1.0 / qcomp=0.60 / qpmin=1 / qpmax=69 / qpstep=4 / vbv_maxrate=7000 / vbv_bufsize=7000 / nal_hrd=cbr / filler=1 / ip_ratio=1.40 / aq=1:1.00
Default                                  : Да
Forced                                   : Нет
Цветовой диапазон                        : Limited
Основные цвета                           : BT.709
Характеристики трансфера                 : BT.709
Коэффициенты матрицы                     : BT.709
Аудио
Идентификатор                            : 2
Формат                                   : AC-3
Формат/Информация                        : Audio Coding 3
Коммерческое название                    : Dolby Digital
Идентификатор кодека                     : A_AC3
Продолжительность                        : 1 ч. 30 м.
Вид битрейта                             : Постоянный
Битрейт                                  : 384 Кбит/сек
Каналы                                   : 2 канала
Channel layout                           : L R
Частота                                  : 48,0 КГц
Частота кадров                           : 31,250 кадров/сек (1536 SPF)
Метод сжатия                             : С потерями
Размер потока                            : 249 Мбайт (6%)
Язык                                     : Russian
Service kind                             : Complete Main
Default                                  : Да
Forced                                   : Нет

Показать сообщения

Вы не можете начинать темы
Вы не можете отвечать на сообщения
Вы не можете редактировать свои сообщения
Вы не можете удалять свои сообщения
Вы не можете голосовать в опросах
Вы не можете прикреплять файлы к сообщениям
Вы не можете скачивать файлы

Текущее время: 22-Июн 18:31

Часовой пояс: UTC ± 0

Пользовательское соглашение Для правообладателей Реклама на сайте Top.Mail.Ru