Подождите, идет загрузка сайта ...
65
Информация о фильме
Название: Манкимэн
Оригинальное название: Monkey Man
Год выхода: 2024
Жанр: Боевик, триллер, криминал
Режиссер: Дев Патель
В ролях: Дев Патель, Питобаш Трипатхи, Випин Шарма, Сикандар Кхер, Ашвини Калсекар, Шарлто Копли, Собхита Дхулипала, Макаранд Дешпанде, Адитхи Калкунте, Закир Хуссайн
О фильме: Парень из трущоб перебивается участием в подпольных боях без правил. В детстве он стал свидетелем убийства матери коррумпированным полицейским, и с тех пор им движет только жажда мести. Получив работу на кухне элитного борделя, который посещает убийца, молодой мститель начинает действовать.
pic pic
Выпущено: США, Канада, Сингапур, Индия / BRON Studios, Thunder Road Pictures, Monkeypaw Productions
Продолжительность: 01:56:47
Озвучивание: Дублированное | Мосфильм-Мастер
Файл
Формат: MKV
Качество: WEB-DL 1080p | Локализованная версия
Видео: MPEG-4 AVC, 5000 Kb/s, 1920x804
Аудио: Russian: AC3, 384 Kb/s (6 ch) / E-AC3, 384 Kb/s (6 ch)
Субтитры: Russian (Full) 18+
Дополнительно: Нет
Complete name : Mankimen.2024.WEB-DL.1080p.ELEKTRI4KA.mkv
Format : Matroska
Format version : Version 4
File size : 4.63 GiB
Duration : 1 h 56 min
Overall bit rate : 5 677 kb/s
Encoded date : UTC 2024-05-02 12:20:20
Writing application : mkvmerge v8.3.0 ('Over the Horizon') 64bit
Writing library : libebml v1.3.1 + libmatroska v1.4.2
Video
ID : 1
Format : AVC
Format/Info : Advanced Video Codec
Format profile : High@L4
Format settings : CABAC / 3 Ref Frames
Format settings, CABAC : Yes
Format settings, Reference frames : 3 frames
Codec ID : V_MPEG4/ISO/AVC
Duration : 1 h 56 min
Bit rate : 5 000 kb/s
Width : 1 920 pixels
Height : 804 pixels
Display aspect ratio : 2.40:1
Frame rate mode : Constant
Frame rate : 25.000 FPS
Color space : YUV
Chroma subsampling : 4:2:0
Bit depth : 8 bits
Scan type : Progressive
Bits/(Pixel*Frame) : 0.130
Stream size : 4.00 GiB (86%)
Writing library : x264 core 164 r3095 baee400
Encoding settings : cabac=1 / ref=4 / deblock=1:-1:-1 / analyse=0x3:0x133 / me=umh / subme=9 / psy=1 / psy_rd=0.40:1.00 / mixed_ref=1 / me_range=24 / chroma_me=1 / trellis=0 / 8x8dct=1 / cqm=0 / deadzone=21,11 / fast_pskip=1 / chroma_qp_offset=-2 / threads=3 / lookahead_threads=1 / sliced_threads=0 / nr=0 / decimate=1 / interlaced=0 / bluray_compat=0 / stitchable=1 / constrained_intra=0 / bframes=8 / b_pyramid=1 / b_adapt=0 / b_bias=0 / direct=3 / weightb=1 / open_gop=0 / weightp=2 / keyint=75 / keyint_min=38 / scenecut=0 / intra_refresh=0 / rc_lookahead=40 / rc=2pass / mbtree=1 / bitrate=5000 / ratetol=1.0 / qcomp=0.80 / qpmin=1 / qpmax=69 / qpstep=4 / cplxblur=20.0 / qblur=0.5 / vbv_maxrate=7500 / vbv_bufsize=10000 / nal_hrd=none / filler=0 / ip_ratio=1.40 / aq=1:1.00
Default : Yes
Forced : No
Color range : Limited
Color primaries : BT.709
Transfer characteristics : BT.709
Matrix coefficients : BT.709
Audio #1
ID : 2
Format : AC-3
Format/Info : Audio Coding 3
Commercial name : Dolby Digital
Codec ID : A_AC3
Duration : 1 h 56 min
Bit rate mode : Constant
Bit rate : 384 kb/s
Channel(s) : 6 channels
Channel layout : L R C LFE Ls Rs
Sampling rate : 48.0 kHz
Frame rate : 31.250 FPS (1536 SPF)
Compression mode : Lossy
Stream size : 321 MiB (7%)
Title : DUB AC3 (Mosfilm-Master)
Language : Russian
Service kind : Complete Main
Default : Yes
Forced : Yes
Audio #2
ID : 3
Format : E-AC-3
Format/Info : Enhanced AC-3
Commercial name : Dolby Digital Plus
Codec ID : A_EAC3
Duration : 1 h 56 min
Bit rate mode : Constant
Bit rate : 384 kb/s
Channel(s) : 6 channels
Channel layout : L R C LFE Ls Rs
Sampling rate : 48.0 kHz
Frame rate : 31.250 FPS (1536 SPF)
Compression mode : Lossy
Stream size : 321 MiB (7%)
Title : DUB EAC3 (Mosfilm-Master)
Language : Russian
Service kind : Complete Main
Default : No
Forced : No
Text
ID : 4
Format : UTF-8
Codec ID : S_TEXT/UTF8
Codec ID/Info : UTF-8 Plain Text
Duration : 1 h 49 min
Bit rate : 53 b/s
Count of elements : 955
Stream size : 42.7 KiB (0%)
Title : Full (stirlooo) 18+
Language : Russian
Default : No
Forced : No

Показать сообщения

Вы не можете начинать темы
Вы не можете отвечать на сообщения
Вы не можете редактировать свои сообщения
Вы не можете удалять свои сообщения
Вы не можете голосовать в опросах
Вы не можете прикреплять файлы к сообщениям
Вы не можете скачивать файлы

Текущее время: 12-Июн 17:36

Часовой пояс: UTC ± 0

Пользовательское соглашение Для правообладателей Реклама на сайте Top.Mail.Ru