Подождите, идет загрузка сайта ...
2
Кунг-фу Панда 4 / Kung Fu Panda 4- Год выпуска: 2024
Страна: США, Китай
Жанр: Мультфильм, фэнтези, боевик, комедия, приключения, семейный
Продолжительность: 01:29:50
Перевод : Дублированный
Субтитры: Отсутствуют
Режиссер: Майк Митчелл, Стефани Стайн
Продюсер: Джонатан Айбел, Гленн Бергер, Ребекка Хантли
В ролях: Джек Блэк, Аквафина, Виола Дэвис, Дастин Хоффман, Брайан Крэнстон, Джеймс Хун, Иэн Макшейн, Ке Хюи Куан, Ронни Чиэн, Лори Тань Чинн-Рейтинг MPAA: PG (рекомендуется присутствие родителей)
Качество: WEBRip 1080p
Формат: MKV
Видео кодек: AVC
Аудио кодек: AC3
Видео: AVC/H.264, 1920x804, ~4000 Kbps, 24.000 кад/сек
Аудио: AC3, 6 ch, 448 Kbps, 48.0 kHz [русский] | (Dub)-Описание: Продолжение приключений легендарного Воина Дракона, его верных друзей и наставника.
Общее
Уникальный идентификатор                 : 190329263368075608121668376682578436318 (0x8F30152FD97350119D8678757A81E0DE)
Полное имя                               : D:\Фильмы\Кунг-фу.Панда 4.2024.WEBRip.[1080p].mkv
Формат                                   : Matroska
Версия формата                           : Version 4
Размер файла                             : 2,79 Гбайт
Продолжительность                        : 1 ч. 29 мин.
Общий битрейт                            : 4 450 Кбит/сек
Частота кадров                           : 24,000 кадра/сек
Название фильма                          : Кунг-фу.Панда 4.2024.WEBRip.[1080p].NNMClub
Дата кодирования                         : 2024-03-30 06:47:01 UTC
Программа кодирования                    : mkvmerge v8.3.0 ('Over the Horizon') 64bit
Библиотека кодирования                   : libebml v1.3.1 + libmatroska v1.4.2
Видео
Идентификатор                            : 1
Формат                                   : AVC
Формат/Информация                        : Advanced Video Codec
Профиль формата                          : High@L4
Настройки формата                        : CABAC / 1 Ref Frames
Параметр CABAC формата                   : Да
Параметр RefFrames формата               : 1 кадр
Идентификатор кодека                     : V_MPEG4/ISO/AVC
Продолжительность                        : 1 ч. 29 мин.
Битрейт                                  : 4 000 Кбит/сек
Ширина                                   : 1 920 пикселей
Высота                                   : 804 пикселя
Соотношение сторон дисплея               : 2,39:1
Режим частоты кадров                     : Постоянный
Частота кадров                           : 24,000 кадра/сек
Цветовое пространство                    : YUV
Цветовая субдискретизация                : 4:2:0
Битовая глубина                          : 8 бит
Тип развёртки                            : Прогрессивная
Бит/(Пиксели*Кадры)                      : 0.108
Размер потока                            : 2,51 Гбайт (90%)
Библиотека кодирования                   : x264 core 158 r2984 3759fcb
Параметры библиотеки кодирования         : cabac=1 / ref=1 / deblock=1:0:0 / analyse=0x3:0x113 / me=hex / subme=2 / psy=1 / psy_rd=1.00:0.00 / mixed_ref=0 / me_range=16 / chroma_me=1 / trellis=0 / 8x8dct=1 / cqm=0 / deadzone=21,11 / fast_pskip=1 / chroma_qp_offset=0 / threads=6 / lookahead_threads=2 / sliced_threads=0 / nr=0 / decimate=1 / interlaced=0 / bluray_compat=0 / constrained_intra=0 / bframes=0 / weightp=1 / keyint=24 / keyint_min=2 / scenecut=40 / intra_refresh=0 / rc_lookahead=10 / rc=cbr / mbtree=1 / bitrate=4000 / ratetol=1.0 / qcomp=0.60 / qpmin=0 / qpmax=69 / qpstep=4 / vbv_maxrate=4000 / vbv_bufsize=6000 / nal_hrd=none / filler=0 / ip_ratio=1.40 / aq=1:1.00
Язык                                     : Английский
По умолчанию                             : Да
Принудительно                            : Нет
Аудио
Идентификатор                            : 2
Формат                                   : AC-3
Формат/Информация                        : Audio Coding 3
Коммерческое название                    : Dolby Digital
Идентификатор кодека                     : A_AC3
Продолжительность                        : 1 ч. 29 мин.
Вид битрейта                             : Постоянный
Битрейт                                  : 448 Кбит/сек
Канал(-ы)                                : 6 каналов
Расположение каналов                     : L R C LFE Ls Rs
Частота дискретизации                    : 48,0 КГц
Частота кадров                           : 31,250 кадров/сек (1536 SPF)
Метод сжатия                             : С потерями
Задержка видео                           : -5 мс.
Размер потока                            : 288 Мбайт (10%)
Язык                                     : Русский
Вид сервиса                              : Complete Main
По умолчанию                             : Да
Принудительно                            : Нет
AC3_metadata cmixlev                     : -4.5 dB
surmixlev                               : -6 dB

Показать сообщения

Вы не можете начинать темы
Вы не можете отвечать на сообщения
Вы не можете редактировать свои сообщения
Вы не можете удалять свои сообщения
Вы не можете голосовать в опросах
Вы не можете прикреплять файлы к сообщениям
Вы не можете скачивать файлы

Текущее время: 16-Июн 19:51

Часовой пояс: UTC ± 0

Пользовательское соглашение Для правообладателей Реклама на сайте Top.Mail.Ru