Подождите, идет загрузка сайта ...
2
Крепкие орешки- Год выхода: 2020
Страна: Россия
Жанр: Детектив
Студия: «Триикс Медиа» по заказу Пятого канала
Продолжительность: ~00:35:08
Перевод: Не требуется
Субтитры: Отсутствуют
Сезон: 1
Количество серий: 1-32 из 32
Режиссер: Арменак Назикян, Сергей Щербин
В ролях: Филипп Азаров, Борис Бедросов, Андрей Бабенко, Лайма Зайцева, Олег Абалян, Вячеслав Аркунов, Тадас Шимилёв, Даниил Щипицын, Екатерина Зорина, Мальвина Кожурова, Павел Платонов (младший), Александр Карпухов, Бекарий Цулукидзе, Михаил Касапов, Алексей Нилов, Эдуард Сергиеня, Наталья Мызникова, Элис Дарс, Евгений Карпов, Олег Метелев, Никита Брусов, Дмитрий Гудим, Елена Шаманова, Александра Ильвес, Яна Флоринская, Елизавета Фалилеева, Кристина Козуб, Андрей Погребинский, Тина Тарусина, Артём Цыпин, Родион Рудаков, Виктор Шуралев, Елена Карпова, Александра Селиванова, Вячеслав Гасай, Екатерина Ильина (III), Анастасия Лёвина (III), Василий Рукша, Алина Мурзагалиева, Евгений Тимохин (II)-Качество: WEB-DLRip-AVC by pic
Формат: MKV
Видео кодек: AVC
Аудио кодек: AC3
Видео: AVC, 1024x576, (16:9), ~1600 kbps, 25 fps, 0.109 bpp
Аудио: AC3 / 2 ch / 48 kHz / 192 kbps /-О фильме: Оперуполномоченные УВД по Комендантскому району Петербурга Леонид Лавров и Юрий Романов – полные противоположности друг друга. Романов — примерный семьянин, спортсмен. Лавров — ловелас, завсегдатай самых злачных мест города. Каждая их встреча завершается горячим спором. Начальство уже давно научилось извлекать выгоду из вечных разногласий двух оперов — ведь у каждого из них не только свои взгляды на жизнь, но и свои подходы к оперативно-розыскной деятельности...
General
Unique ID : 188115357340398822867464308867108956034 (0x8D85B3313D86CA0FA3F1B17ACD83E782)
Complete name : F:\Крепкие орешки.S01.(2023).WEB-DLRip.(AVC).Files-x\01.Крепкие орешки.S01.(2019).WEB-DLRip.(AVC).by.Серый1779.Files-x.mkv
Format : Matroska
Format version : Version 2
File size : 494 MiB
Duration : 38 min 29 s
Overall bit rate : 1 793 kb/s
Encoded date : UTC 2024-02-12 12:20:48
Writing application : mkvmerge v7.8.0 ('River Man') 32bit built on Apr 3 2015 12:11:22
Writing library : libebml v1.3.1 + libmatroska v1.4.2
Video
ID : 1
Format : AVC
Format/Info : Advanced Video Codec
Format profile : [email protected]
Format settings : CABAC / 9 Ref Frames
Format settings, CABAC : Yes
Format settings, RefFrames : 9 frames
Codec ID : V_MPEG4/ISO/AVC
Duration : 38 min 29 s
Bit rate : 1 600 kb/s
Width : 1 024 pixels
Height : 576 pixels
Display aspect ratio : 16:9
Frame rate mode : Constant
Frame rate : 25.000 FPS
Color space : YUV
Chroma subsampling : 4:2:0
Bit depth : 8 bits
Scan type : Progressive
Bits/(Pixel*Frame) : 0.109
Stream size : 431 MiB (87%)
Writing library : x264 core 146 r2538 121396c
Encoding settings : cabac=1 / ref=9 / deblock=1:-2:-1 / analyse=0x3:0x133 / me=umh / subme=9 / psy=1 / psy_rd=1.00:0.15 / mixed_ref=1 / me_range=32 / chroma_me=1 / trellis=2 / 8x8dct=1 / cqm=0 / deadzone=21,11 / fast_pskip=0 / chroma_qp_offset=-3 / threads=18 / lookahead_threads=3 / sliced_threads=0 / nr=0 / decimate=1 / interlaced=0 / bluray_compat=0 / constrained_intra=0 / bframes=9 / b_pyramid=2 / b_adapt=2 / b_bias=0 / direct=1 / weightb=1 / open_gop=0 / weightp=2 / keyint=250 / keyint_min=25 / scenecut=40 / intra_refresh=0 / rc=2pass / mbtree=0 / bitrate=1600 / ratetol=1.0 / qcomp=0.60 / qpmin=0 / qpmax=69 / qpstep=4 / cplxblur=20.0 / qblur=0.5 / ip_ratio=1.40 / pb_ratio=1.30 / aq=2:1.00
Default : Yes
Forced : No
Color range : Limited
Color primaries : BT.709
Transfer characteristics : BT.709
Matrix coefficients : BT.709
Audio
ID : 2
Format : AC-3
Format/Info : Audio Coding 3
Format settings, Endianness : Big
Codec ID : A_AC3
Duration : 38 min 29 s
Bit rate mode : Constant
Bit rate : 192 kb/s
Channel(s) : 2 channels
Channel positions : Front: L R
Sampling rate : 48.0 kHz
Frame rate : 31.250 FPS (1536 SPF)
Bit depth : 16 bits
Compression mode : Lossy
Stream size : 52.9 MiB (11%)
Service kind : Complete Main
Default : Yes
Forced : No

Показать сообщения

Вы не можете начинать темы
Вы не можете отвечать на сообщения
Вы не можете редактировать свои сообщения
Вы не можете удалять свои сообщения
Вы не можете голосовать в опросах
Вы не можете прикреплять файлы к сообщениям
Вы не можете скачивать файлы

Текущее время: 23-Июн 09:02

Часовой пояс: UTC ± 0

Пользовательское соглашение Для правообладателей Реклама на сайте Top.Mail.Ru