Подождите, идет загрузка сайта ...
2
Контуженный / 2 Сезон: 1-8 серии из 8 (Павел Мальков) [2024, Детектив, WEB-DL 1080p]- Год выпуска: 2024
Страна: Россия
Студия: Триикс Медиа
Жанр: Детектив
Продолжительность: 8 x ~ 00:43:00
Сезоны / серии: 2 Сезон: 1-8 серии из 8
Перевод: Не требуется
Субтитры: Нет
Режиссер: Павел Мальков
В ролях: Антон Батырев, Кирилл Полухин, Инна Ярмошук, Андрей Шарков, Наталья Ткаченко, Владимир Петров (V), Валентина Муравская, Евгений Катаев, Стэнли Красовицки, Анатолий Ильченко, Мария Перн, Олег Мельник, Александр Апарнев, Денис Пьянов-Качество: WEB-DL 1080p
Формат: MKV
Видео кодек: AVC
Аудио кодек: AC3
Видео: MPEG-4 AVC, ~ 5120 Кбит/с, 1920x1080, 25.000 FPS
Аудио: AC3, 2 ch, 256 Кбит/с, 48,0 КГц Русский-Описание: Продолжение сериала о майоре Чистякове, который несколько лет назад получил серьезное ранение головы и контузию, но вместе с болезнью обрел и особенный дар. Прикоснувшись к какой-либо вещи, например, улике, оставленной преступником, он видит чужие воспоминания. В начале нового сезона Чистяков выходит из больницы. Врачи дают хороший прогноз. Начальник УМВД Майский предлагает Дмитрию стать его заместителем. К тому времени информация об оперативнике, который раскрывает самые сложные дела необычным способом, распространилась по всему городу. Именно поэтому криминальный авторитет по кличке Ацетон решил обратиться к Чистякову. У авторитета похитили дочь и времени на её поиски практически нет. Купить оперативника не удается и, чтобы заставить упрямого майора работать на себя, Ацетон обещает убить самых близких Дмитрию людей. Авторитет ждет от бывшего СОБРовца чудес, но никто не знает, сохранился ли его чудесный дар, или теперь Чистяков может рассчитывать только на свою смекалку и опыт.
General
Unique ID : 232619158028068510558846049606103978746 (0xAF00D1F92E2B417E854AC5745CE7D2FA)
Complete name : G:Kontuzhennyj.S02.2024.WEB-DL.1080p.ExKinoRayKontuzhennyj.S02.E01.2024.WEB-DL.1080p.ExKinoRay.mkv
Format : Matroska
Format version : Version 4
File size : 1.60 GiB
Duration : 42 min 51 s
Overall bit rate : 5 359 kb/s
Encoded date : UTC 2024-05-10 22:14:46
Writing application : mkvmerge v56.1.0 ('My Friend') 64-bit
Writing library : libebml v1.4.2 + libmatroska v1.6.4
Video
ID : 1
Format : AVC
Format/Info : Advanced Video Codec
Format profile : High@L4
Format settings : CABAC / 4 Ref Frames
Format settings, CABAC : Yes
Format settings, Reference frames : 4 frames
Codec ID : V_MPEG4/ISO/AVC
Duration : 42 min 51 s
Bit rate : 5 120 kb/s
Width : 1 920 pixels
Height : 1 080 pixels
Display aspect ratio : 16:9
Frame rate mode : Constant
Frame rate : 25.000 FPS
Color space : YUV
Chroma subsampling : 4:2:0
Bit depth : 8 bits
Scan type : Progressive
Bits/(Pixel*Frame) : 0.099
Stream size : 1.53 GiB (95%)
Writing library : x264 core 152 r2854 e9a5903
Encoding settings : cabac=1 / ref=3 / deblock=1:0:0 / analyse=0x3:0x113 / me=hex / subme=7 / psy=1 / psy_rd=1.00:0.00 / mixed_ref=1 / me_range=16 / chroma_me=1 / trellis=1 / 8x8dct=1 / cqm=0 / deadzone=21,11 / fast_pskip=1 / chroma_qp_offset=-2 / threads=34 / lookahead_threads=5 / sliced_threads=0 / nr=0 / decimate=1 / interlaced=0 / bluray_compat=0 / constrained_intra=0 / bframes=6 / b_pyramid=2 / b_adapt=1 / b_bias=0 / direct=1 / weightb=1 / open_gop=0 / weightp=2 / keyint=50 / keyint_min=26 / scenecut=0 / intra_refresh=0 / rc_lookahead=40 / rc=2pass / mbtree=1 / bitrate=5120 / ratetol=1.0 / qcomp=0.60 / qpmin=0 / qpmax=69 / qpstep=4 / cplxblur=20.0 / qblur=0.5 / vbv_maxrate=7680 / vbv_bufsize=20480 / nal_hrd=none / filler=0 / ip_ratio=1.40 / aq=1:1.00
Language : Russian
Default : Yes
Forced : No
Audio
ID : 2
Format : AC-3
Format/Info : Audio Coding 3
Commercial name : Dolby Digital
Codec ID : A_AC3
Duration : 42 min 51 s
Bit rate mode : Constant
Bit rate : 256 kb/s
Channel(s) : 2 channels
Channel layout : L R
Sampling rate : 48.0 kHz
Frame rate : 31.250 FPS (1536 SPF)
Compression mode : Lossy
Stream size : 78.5 MiB (5%)
Language : Russian
Service kind : Complete Main
Default : Yes
Forced : No

Показать сообщения

Вы не можете начинать темы
Вы не можете отвечать на сообщения
Вы не можете редактировать свои сообщения
Вы не можете удалять свои сообщения
Вы не можете голосовать в опросах
Вы не можете прикреплять файлы к сообщениям
Вы не можете скачивать файлы

Текущее время: 16-Июн 15:28

Часовой пояс: UTC ± 0

Пользовательское соглашение Для правообладателей Реклама на сайте Top.Mail.Ru