Подождите, идет загрузка сайта ...
65
Информация о фильме
Название: Катастрофа
Оригинальное название: Acide
Год выпуска: 2023
Производство: Франция, Бельгия
Жанр: Фантастика, триллер, боевик
Продолжительность: 01:39:46
Перевод: Дубляж [CPI Films]
Субтитры: Французские (forced, full), aнглийские
Навигация по главам: Есть
Режиссер: Жюст Филиппо
В ролях:
pic pic pic pic pic pic pic-Гийом Кане, Летиция Дош, Пейшнс Мюнхенбах, Мари Юнг, Мартен Версе,
Сулиан Брахим, Клеман Брессон, Паскаль Парментье, Суфьян Менуни, Микаэль Перес--О фильме: По всему миру наблюдаются аномальные случаи кислотных дождей, уничтожающих все живое. В центре смертоносной стихии оказывается пятнадцатилетняя Сельма и ее родители. Вместе им предстоит объединить все силы, чтобы спастись от вселенской угрозы и пережить апокалипсис.--pic pic--Качество: BDRip 1080p
Формат MKV
Видео: AVC, 1920x804 (2, 40:1), 13182 kbps, 24 fps
Аудио#1: 48 kHz, AC3, 5.1, 384 kbps | RUS
Аудио#2: 48 kHz, DTS, 5.1, 1509 kbps | FRE--
Общее
Уникальный идентификатор: 40012976817985797056095523954089788215 (0x1E1A3811CFC39676D12543974E100337)
Полное имя: O:Acide.2023.BDRip.1080p.ExKinoRay.mkv
Формат: Matroska
Версия формата: Version 4
Размер файла: 10, 5 Гбайт
Продолжительность: 1 ч. 39 м.
Общий поток: 15, 1 Мбит/сек
Название фильма: Acide (2023)
Дата кодирования: UTC 2024-01-23 12:34:33
Программа кодирования: mkvmerge v74.0.0 ('You Oughta Know') 64-bit
Библиотека кодирования: libebml v1.4.4 + libmatroska v1.7.1
Видео
Идентификатор: 1
Формат: AVC
Формат/Информация: Advanced Video Codec
Профиль формата: [email protected]
Настройки формата: CABAC / 5 Ref Frames
Параметр CABAC формата: Да
Параметр RefFrames формата: 5 кадров
Идентификатор кодека: V_MPEG4/ISO/AVC
Продолжительность: 1 ч. 39 м.
Битрейт: 13, 2 Мбит/сек
Ширина: 1 920 пикселей
Высота: 804 пикселя
Соотношение сторон: 2, 40:1
Режим частоты кадров: Постоянный
Частота кадров: 24, 000 кадра/сек
Цветовое пространство: YUV
Субдискретизация насыщенности: 4:2:0
Битовая глубина: 8 бит
Тип развёртки: Прогрессивная
Бит/(Пиксели*Кадры): 0.356
Размер потока: 9, 19 Гбайт (87%)
Заголовок: potroks
Библиотека кодирования: x264 core 164 r3173 potroks
Настройки программы: cabac=1 / ref=5 / deblock=1:-3:-3 / analyse=0x3:0x133 / me=umh / subme=11 / psy=1 / psy_rd=0.96:0.05 / mixed_ref=1 / me_range=32 / chroma_me=1 / trellis=2 / 8x8dct=1 / cqm=0 / deadzone=21, 11 / fast_pskip=0 / chroma_qp_offset=-3 / threads=18 / lookahead_threads=10 / sliced_threads=0 / nr=0 / decimate=0 / interlaced=0 / bluray_compat=0 / constrained_intra=0 / bframes=9 / b_pyramid=2 / b_adapt=2 / b_bias=0 / direct=1 / weightb=1 / open_gop=0 / weightp=2 / keyint=250 / keyint_min=23 / scenecut=40 / intra_refresh=0 / rc_lookahead=60 / rc=crf / mbtree=0 / crf=17.1 / qcomp=0.70 / qpmin=0 / qpmax=69 / qpstep=4 / vbv_maxrate=50000 / vbv_bufsize=62500 / crf_max=0.0 / nal_hrd=none / filler=0 / ip_ratio=1.35 / pb_ratio=1.25 / aq=1:0.90
Язык: French
Default: Да
Forced: Нет
Аудио #1
Идентификатор: 2
Формат: AC-3
Формат/Информация: Audio Coding 3
Коммерческое название: Dolby Digital
Идентификатор кодека: A_AC3
Продолжительность: 1 ч. 39 м.
Вид битрейта: Постоянный
Битрейт: 384 Кбит/сек
Каналы: 6 каналов
Channel layout: L R C LFE Ls Rs
Частота: 48, 0 КГц
Частота кадров: 31, 250 кадров/сек (1536 SPF)
Метод сжатия: С потерями
Размер потока: 274 Мбайт (3%)
Заголовок: Dub | DD 5.1 @ 384 kbps - CPI Films
Язык: Russian
Service kind: Complete Main
Default: Да
Forced: Нет
Аудио #2
Идентификатор: 3
Формат: DTS
Формат/Информация: Digital Theater Systems
Идентификатор кодека: A_DTS
Продолжительность: 1 ч. 39 м.
Вид битрейта: Постоянный
Битрейт: 1 509 Кбит/сек
Каналы: 6 каналов
Channel layout: C L R Ls Rs LFE
Частота: 48, 0 КГц
Частота кадров: 93, 750 кадра/сек (512 SPF)
Битовая глубина: 24 бит
Метод сжатия: С потерями
Размер потока: 1, 05 Гбайт (10%)
Заголовок: Original | DTS 5.1 @ 1509 kbps
Язык: French
Default: Нет
Forced: Нет
Текст #1
Идентификатор: 4
Формат: UTF-8
Идентификатор кодека: S_TEXT/UTF8
Идентификатор кодека/Информация: UTF-8 Plain Text
Продолжительность: 1 ч. 26 м.
Битрейт: 2 бит/сек
Count of elements: 67
Размер потока: 1, 80 Кбайт (0%)
Заголовок: Forced
Язык: French
Default: Нет
Forced: Нет
Текст #2
Идентификатор: 5
Формат: UTF-8
Идентификатор кодека: S_TEXT/UTF8
Идентификатор кодека/Информация: UTF-8 Plain Text
Продолжительность: 1 ч. 35 м.
Битрейт: 52 бит/сек
Count of elements: 1303
Размер потока: 36, 5 Кбайт (0%)
Заголовок: Full
Язык: French
Default: Нет
Forced: Нет
Текст #3
Идентификатор: 6
Формат: UTF-8
Идентификатор кодека: S_TEXT/UTF8
Идентификатор кодека/Информация: UTF-8 Plain Text
Продолжительность: 1 ч. 35 м.
Битрейт: 47 бит/сек
Count of elements: 1303
Размер потока: 33, 6 Кбайт (0%)
Заголовок: Full
Язык: English
Default: Нет
Forced: Нет
Меню
00:00:00.000: fr:Chapter 01
00:10:02.333: fr:Chapter 02
00:18:28.750: fr:Chapter 03
00:27:06.583: fr:Chapter 04
00:34:21.125: fr:Chapter 05
00:39:58.833: fr:Chapter 06
00:49:22.125: fr:Chapter 07
00:58:34.750: fr:Chapter 08
01:06:25.791: fr:Chapter 09
01:17:31.791: fr:Chapter 10
01:29:32.916: fr:Chapter 11
01:35:30.875: fr:Chapter 12

Показать сообщения

Вы не можете начинать темы
Вы не можете отвечать на сообщения
Вы не можете редактировать свои сообщения
Вы не можете удалять свои сообщения
Вы не можете голосовать в опросах
Вы не можете прикреплять файлы к сообщениям
Вы не можете скачивать файлы

Текущее время: 20-Июн 22:47

Часовой пояс: UTC ± 0

Пользовательское соглашение Для правообладателей Реклама на сайте Top.Mail.Ru