Подождите, идет загрузка сайта ...
65
Капитан Марвел 2 / The Marvels- Год выхода: 2023
Страна: США
Студия: Marvel Studios Inc.
Жанр: Фантастика, боевик, приключения
Продолжительность: 01:44:38
Перевод: Профессиональный (полное дублирование) | MovieDalen |
Перевод: Профессиональный (полное дублирование) - неофициальный| Red Head Sound |-Режиссер:
Ниа ДаКоста-В ролях:
Бри Ларсон, Тейона Паррис, Иман Веллани, Сэмюэл Л. Джексон, Зави Эштон, Гари Льюис, Пак Со-джун, Зенобия Шрофф, Мохан Капур, Саагар Шайх-Описание:
Кэрол Дэнверс обретает свою отнятую тиранами Крии личность и мстит Высшему Разуму. Это приводит к тому, что Кэрол взваливает на свои плечи бремя дестабилизированной Вселенной. Когда она проходит через червоточину, которая должна вывести её на революционера из числа Крии, её силы переплетаются со способностями Камалы Хан, известной как Мисс Марвел, а также с племянницей Моникой Рамбо. Девушкам придётся научиться работать в команде, чтобы спасти Вселенную.-pic pic-Качество: HDRip-AVC
Формат: MKV
Видео: 1024x426 at 24.000 fps, [email protected], ~1898 kbps
Аудио: AC3, 6 ch, ~448 kbps - | Русский | pic | MovieDalen
Аудио: AC3, 6 ch, ~448 kbps - | Русский | pic | Red Head Sound
Субтитры: Русские (Forced, full), английские-
General
Unique ID : 98382076891445276525881515461073434958 (0x4A03B2E3BEE8C5CB4ED9B909D2DFF94E)
Complete name : O:The.Marvels.2023.2xDUB.x264.seleZen.mkv
Format : Matroska
Format version : Version 4
File size : 2.05 GiB
Duration : 1 h 44 min
Overall bit rate : 2 797 kb/s
Frame rate : 23.976 FPS
Movie name : The.Marvels.2023.2xDUB.x264.seleZen
Encoded date : 2024-02-06 07:35:33 UTC
Writing application : mkvmerge v82.0 ('I'm The President') 64-bit
Writing library : libebml v1.4.5 + libmatroska v1.7.1
Cover : Yes
Attachments : cover.jpg / small_cover.jpg
Video
ID : 1
Format : AVC
Format/Info : Advanced Video Codec
Format profile : [email protected]
Format settings : CABAC / 14 Ref Frames
Format settings, CABAC : Yes
Format settings, Reference : 14 frames
Codec ID : V_MPEG4/ISO/AVC
Duration : 1 h 44 min
Bit rate : 1 898 kb/s
Width : 1 024 pixels
Height : 428 pixels
Display aspect ratio : 2.40:1
Frame rate mode : Constant
Frame rate : 23.976 (24000/1001) FPS
Color space : YUV
Chroma subsampling : 4:2:0
Bit depth : 8 bits
Scan type : Progressive
Bits/(Pixel*Frame) : 0.181
Stream size : 1.39 GiB (68%)
Title : -=DoMiNo=-
Writing library : x264 core 164 r3173 -DoMiNo
Encoding settings : cabac=1 / ref=14 / deblock=1:-2:-2 / analyse=0x3:0x133 / me=umh / subme=10 / psy=1 / psy_rd=1.03:0.05 / mixed_ref=1 / me_range=32 / chroma_me=1 / trellis=2 / 8x8dct=1 / cqm=0 / deadzone=21,11 / fast_pskip=0 / chroma_qp_offset=-3 / threads=16 / lookahead_threads=3 / sliced_threads=0 / nr=0 / decimate=0 / interlaced=0 / bluray_compat=0 / constrained_intra=0 / bframes=10 / b_pyramid=2 / b_adapt=2 / b_bias=0 / direct=1 / weightb=1 / open_gop=0 / weightp=2 / keyint=250 / keyint_min=23 / scenecut=40 / intra_refresh=0 / rc_lookahead=60 / rc=crf / mbtree=0 / crf=17.8 / qcomp=0.60 / qpmin=0 / qpmax=69 / qpstep=4 / vbv_maxrate=50000 / vbv_bufsize=62500 / crf_max=0.0 / nal_hrd=none / filler=0 / ip_ratio=1.40 / pb_ratio=1.30 / aq=3:0.80
Language : English
Default : Yes
Forced : No
Color range : Limited
Color primaries : BT.709
Transfer characteristics : BT.709
Matrix coefficients : BT.709
Audio #1
ID : 2
Format : AC-3
Format/Info : Audio Coding 3
Commercial name : Dolby Digital
Codec ID : A_AC3
Duration : 1 h 44 min
Bit rate mode : Constant
Bit rate : 448 kb/s
Channel(s) : 6 channels
Channel layout : L R C LFE Ls Rs
Sampling rate : 48.0 kHz
Frame rate : 31.250 FPS (1536 SPF)
Compression mode : Lossy
Stream size : 336 MiB (16%)
Title : Dub_MovieDalen
Language : Russian
Service kind : Complete Main
Default : Yes
Forced : No
Audio #2
ID : 3
Format : AC-3
Format/Info : Audio Coding 3
Commercial name : Dolby Digital
Codec ID : A_AC3
Duration : 1 h 44 min
Bit rate mode : Constant
Bit rate : 448 kb/s
Channel(s) : 6 channels
Channel layout : L R C LFE Ls Rs
Sampling rate : 48.0 kHz
Frame rate : 31.250 FPS (1536 SPF)
Compression mode : Lossy
Stream size : 335 MiB (16%)
Title : Dub_Red Head Sound
Language : Russian
Service kind : Complete Main
Default : No
Forced : No
Text #1
ID : 4
Format : UTF-8
Codec ID : S_TEXT/UTF8
Codec ID/Info : UTF-8 Plain Text
Duration : 1 h 33 min
Bit rate : 1 b/s
Frame rate : 0.004 FPS
Count of elements : 21
Stream size : 829 Bytes (0%)
Title : Forced
Language : Russian
Default : No
Forced : No
Text #2
ID : 5
Format : UTF-8
Codec ID : S_TEXT/UTF8
Codec ID/Info : UTF-8 Plain Text
Duration : 1 h 42 min
Bit rate : 75 b/s
Frame rate : 0.200 FPS
Count of elements : 1226
Stream size : 56.9 KiB (0%)
Title : Full
Language : Russian
Default : No
Forced : No
Text #3
ID : 6
Format : UTF-8
Codec ID : S_TEXT/UTF8
Codec ID/Info : UTF-8 Plain Text
Duration : 1 h 35 min
Bit rate : 55 b/s
Frame rate : 0.211 FPS
Count of elements : 1207
Stream size : 38.5 KiB (0%)
Title : Full
Language : English
Default : No
Forced : No
Text #4
ID : 7
Format : UTF-8
Codec ID : S_TEXT/UTF8
Codec ID/Info : UTF-8 Plain Text
Duration : 1 h 44 min
Bit rate : 64 b/s
Frame rate : 0.285 FPS
Count of elements : 1791
Stream size : 49.8 KiB (0%)
Title : SDH
Language : English
Default : No
Forced : No
Menu
00:00:00.000 : en:Chapter 01
00:04:20.969 : en:Chapter 02
00:07:03.006 : en:Chapter 03
00:11:09.711 : en:Chapter 04
00:14:14.270 : en:Chapter 05
00:21:09.018 : en:Chapter 06
00:27:19.888 : en:Chapter 07
00:29:42.739 : en:Chapter 08
00:33:25.503 : en:Chapter 09
00:38:08.077 : en:Chapter 10
00:43:50.253 : en:Chapter 11
00:48:06.133 : en:Chapter 12
00:50:26.815 : en:Chapter 13
00:52:31.023 : en:Chapter 14
00:58:52.070 : en:Chapter 15
01:05:07.695 : en:Chapter 16
01:09:47.683 : en:Chapter 17
01:17:14.547 : en:Chapter 18
01:23:57.032 : en:Chapter 19
01:27:25.031 : en:Chapter 20
01:29:50.010 : en:Chapter 21
01:32:04.102 : en:Chapter 22
01:33:11.085 : en:Chapter 23
01:35:53.831 : en:Chapter 24
01:37:35.183 : en:Chapter 25

Показать сообщения

Вы не можете начинать темы
Вы не можете отвечать на сообщения
Вы не можете редактировать свои сообщения
Вы не можете удалять свои сообщения
Вы не можете голосовать в опросах
Вы не можете прикреплять файлы к сообщениям
Вы не можете скачивать файлы

Текущее время: 22-Июн 19:53

Часовой пояс: UTC ± 0

Пользовательское соглашение Для правообладателей Реклама на сайте Top.Mail.Ru