Подождите, идет загрузка сайта ...
65
Информация о фильме
Название: Каменщик
Оригинальное название: The Bricklayer
Год выхода: 2023
Жанр: Боевик, триллер
Режиссер: Ренни Харлин--В ролях: Аарон Экхарт, Нина Добрев, Клифтон Коллинз мл., Тим Блейк Нельсон, Ильфенеш Хадера, Оливер Тревена, Акис Сакеллариу, Ори Феффер, Джон Т. Вудс, Константин Адаев--О фильме: Стив Уэйл по прозвищу Каменщик - один из лучших агентов ЦРУ, оставивший службу в прошлом. Но когда его старый знакомый организовывает серию убийств с целью подставить Управление, властям приходится вернуть Стива в игру. Теперь вместе с заносчивой напарницей Кейт они должны остановить опаснейшего противника, пока под угрозой не оказался весь мировой порядок.--pic pic--Страна: США, Болгария, Греция
Студия: Eclectic Pictures Inc., Ekome, G-BASE, Millennium Films
Продолжительность: 01:49:58
Перевод: Дублированный | Мосфильм-Мастер--Файл
Формат: MKV
Качество: BDRemux 1080p
Видео: MPEG-4 AVC, 1920x1080 (16:9), 35.9 Mbps, 23.976 fps
Аудио 1: Russian: E-AC3 Dolby Digital, 48.0 kHz, 5.1 ch, 448 kbps
Аудио 2: English: DTS-HD MA Audio, 48.0 kHz, 5.1 ch, 1986 kbps
Субтитры: Русские (Full), английские, казахские и др.--
General
Unique ID : 3569445938811287822253628763485446057 (0x2AF7345ABBCD687432A6246ABD71FA9)
Complete name : The.Bricklayer.2023.REMUX.mkv
Format : Matroska
Format version : Version 4
File size : 29.4 GiB
Duration : 1 h 49 min
Overall bit rate mode : Variable
Overall bit rate : 38.3 Mb/s
Encoded date : UTC 2024-04-21 03:54:39
Writing application : mkvmerge v20.0.0 ('I Am The Sun') 64-bit
Writing library : libebml v1.3.5 + libmatroska v1.4.8
Video
ID : 1
Format : AVC
Format/Info : Advanced Video Codec
Format profile : [email protected]
Format settings : CABAC / 4 Ref Frames
Format settings, CABAC : Yes
Format settings, Reference frames : 4 frames
Codec ID : V_MPEG4/ISO/AVC
Duration : 1 h 49 min
Bit rate mode : Variable
Bit rate : 35.9 Mb/s
Maximum bit rate : 40.0 Mb/s
Width : 1 920 pixels
Height : 1 080 pixels
Display aspect ratio : 16:9
Frame rate mode : Constant
Frame rate : 23.976 (24000/1001) FPS
Color space : YUV
Chroma subsampling : 4:2:0
Bit depth : 8 bits
Scan type : Progressive
Bits/(Pixel*Frame) : 0.721
Stream size : 27.5 GiB (94%)
Language : English
Default : Yes
Forced : No
Color range : Limited
Color primaries : BT.709
Transfer characteristics : BT.709
Matrix coefficients : BT.709
Audio #1
ID : 2
Format : E-AC-3
Format/Info : Enhanced AC-3
Commercial name : Dolby Digital Plus
Codec ID : A_EAC3
Duration : 1 h 49 min
Bit rate mode : Constant
Bit rate : 448 kb/s
Channel(s) : 6 channels
Channel layout : L R C LFE Ls Rs
Sampling rate : 48.0 kHz
Frame rate : 31.250 FPS (1536 SPF)
Compression mode : Lossy
Stream size : 352 MiB (1%)
Title : Dub Мосфильм-Мастер, Кинопоиск HD
Language : Russian
Service kind : Complete Main
Default : Yes
Forced : No
Audio #2
ID : 3
Format : DTS XLL
Format/Info : Digital Theater Systems
Commercial name : DTS-HD Master Audio
Codec ID : A_DTS
Duration : 1 h 49 min
Bit rate mode : Variable
Bit rate : 1 986 kb/s
Channel(s) : 6 channels
Channel layout : C L R Ls Rs LFE
Sampling rate : 48.0 kHz
Frame rate : 93.750 FPS (512 SPF)
Bit depth : 16 bits
Compression mode : Lossless
Stream size : 1.53 GiB (5%)
Language : English
Default : No
Forced : No
Text #1
ID : 4
Format : UTF-8
Codec ID : S_TEXT/UTF8
Codec ID/Info : UTF-8 Plain Text
Duration : 1 h 41 min
Bit rate : 68 b/s
Count of elements : 1124
Stream size : 51.3 KiB (0%)
Language : Russian
Default : No
Forced : No
Text #2
ID : 5
Format : UTF-8
Codec ID : S_TEXT/UTF8
Codec ID/Info : UTF-8 Plain Text
Duration : 1 h 39 min
Bit rate : 43 b/s
Count of elements : 1078
Stream size : 31.5 KiB (0%)
Language : English
Default : No
Forced : No
Text #3
ID : 6
Format : UTF-8
Codec ID : S_TEXT/UTF8
Codec ID/Info : UTF-8 Plain Text
Duration : 1 h 41 min
Bit rate : 70 b/s
Count of elements : 1176
Stream size : 52.3 KiB (0%)
Language : Kazakh
Default : No
Forced : No
Text #4
ID : 7
Format : UTF-8
Codec ID : S_TEXT/UTF8
Codec ID/Info : UTF-8 Plain Text
Duration : 1 h 39 min
Bit rate : 45 b/s
Count of elements : 1174
Stream size : 32.8 KiB (0%)
Language : Azerbaijani
Default : No
Forced : No
Text #5
ID : 8
Format : UTF-8
Codec ID : S_TEXT/UTF8
Codec ID/Info : UTF-8 Plain Text
Duration : 1 h 39 min
Bit rate : 39 b/s
Count of elements : 767
Stream size : 29.0 KiB (0%)
Language : Finnish
Default : No
Forced : No
Text #6
ID : 9
Format : UTF-8
Codec ID : S_TEXT/UTF8
Codec ID/Info : UTF-8 Plain Text
Duration : 1 h 39 min
Bit rate : 41 b/s
Count of elements : 767
Stream size : 30.2 KiB (0%)
Language : Swedish
Default : No
Forced : No
Text #7
ID : 10
Format : UTF-8
Codec ID : S_TEXT/UTF8
Codec ID/Info : UTF-8 Plain Text
Duration : 1 h 39 min
Bit rate : 41 b/s
Count of elements : 766
Stream size : 29.9 KiB (0%)
Language : Danish
Default : No
Forced : No
Text #8
ID : 11
Format : UTF-8
Codec ID : S_TEXT/UTF8
Codec ID/Info : UTF-8 Plain Text
Duration : 1 h 39 min
Bit rate : 39 b/s
Count of elements : 767
Stream size : 28.9 KiB (0%)
Language : Norwegian
Default : No
Forced : No
Text #9
ID : 12
Format : PGS
Codec ID : S_HDMV/PGS
Codec ID/Info : Picture based subtitle format used on BDs/HD-DVDs
Duration : 1 h 39 min
Bit rate : 31.5 kb/s
Count of elements : 1942
Stream size : 22.3 MiB (0%)
Language : German
Default : No
Forced : No
Menu
00:00:00.000 : en:Chapter 01
00:09:14.763 : en:Chapter 02
00:18:15.845 : en:Chapter 03
00:27:17.761 : en:Chapter 04
00:36:51.543 : en:Chapter 05
00:45:10.499 : en:Chapter 06
00:52:56.131 : en:Chapter 07
01:02:28.787 : en:Chapter 08
01:12:36.018 : en:Chapter 09
01:21:06.320 : en:Chapter 10
01:30:35.597 : en:Chapter 11
01:40:19.680 : en:Chapter 12
01:49:58.592 : en:Chapter 13

Показать сообщения

Вы не можете начинать темы
Вы не можете отвечать на сообщения
Вы не можете редактировать свои сообщения
Вы не можете удалять свои сообщения
Вы не можете голосовать в опросах
Вы не можете прикреплять файлы к сообщениям
Вы не можете скачивать файлы

Текущее время: 15-Июл 06:04

Часовой пояс: UTC ± 0

Пользовательское соглашение Для правообладателей Реклама на сайте Top.Mail.Ru