Подождите, идет загрузка сайта ...
2
Иван Васильевич меняет всё- Год выхода: 2023
Страна: Россия
Жанр: Комедия, фантастика, приключения
Студия: Кинокомпания "ТНТ"
Продолжительность: ~ 01:46:13
Перевод: Не требуется
Субтитры: Русские
Режиссер: Миша Семичев, Роман Ким
В ролях: Демис Карибидис, Тимур Батрутдинов, Максим Лагашкин, Павел Деревянко, Марина Кравец, Ольга Бузова, Гарик Мартиросян, Марина Федункив, Ольга Картункова, Максим Киселев (II), Павел Воля, Сергей Светлаков, Олег Верещагин, Азамат Мусагалиев, Денис Дорохов-Качество: WEB-DLRip-AVC
Формат: MKV
Видео кодек: AVC
Аудио кодек: AC3
Видео: AVC, 1024x576, (16:9), ~ 1646 kbps, 25 fps, 0,112 bpp
Аудио: AC3 / 2 ch / 48.0 kHz / 192 kbps /-О фильме: В основе сюжета новогоднего музыкального телефильма лежит легендарная советская комедия Леонида Гайдая «Иван Васильевич меняет профессию». Зрителей ждёт новая история как с уже знакомыми персонажами – Иоанном Грозным, Иваном Буншей, изобретателей Шуриком – так и с совершенно неожиданными героями из других вселенных и временных эпох. Основная история закручивается вокруг царя Ивана Грозного, которого Шурик пытается вернуть домой с помощью машины времени. Но коварный VPN, на котором работает чудо-машина, будет постоянно ломаться и перемещать героев в разные страны и времена, где они случайно или намеренно будут менять прошлое. Кроме того, оригинальный сюжет на основе культовой комедии свяжут отсылки на эпизоды из советских фильмов, современных сериалов и музыкальных клипов.
General
Unique ID : 229986491986381649613599779283093240250 (0xAD05C9841C9929DBA9290540AB7D39BA)
Complete name : F:\Иван Васильевич меняет всё.(2023).WEB-DLRip.(AVC).by.Серый1779.Files-x.mkv
Format : Matroska
Format version : Version 2
File size : 1.36 GiB
Duration : 1 h 46 min
Overall bit rate : 1 839 kb/s
Encoded date : UTC 2023-12-31 22:22:33
Writing application : mkvmerge v7.8.0 ('River Man') 32bit built on Apr 3 2015 12:11:22
Writing library : libebml v1.3.1 + libmatroska v1.4.2
Video
ID : 1
Format : AVC
Format/Info : Advanced Video Codec
Format profile : [email protected]
Format settings : CABAC / 9 Ref Frames
Format settings, CABAC : Yes
Format settings, RefFrames : 9 frames
Codec ID : V_MPEG4/ISO/AVC
Duration : 1 h 46 min
Bit rate : 1 646 kb/s
Width : 1 024 pixels
Height : 576 pixels
Display aspect ratio : 16:9
Frame rate mode : Constant
Frame rate : 25.000 FPS
Color space : YUV
Chroma subsampling : 4:2:0
Bit depth : 8 bits
Scan type : Progressive
Bits/(Pixel*Frame) : 0.112
Stream size : 1.19 GiB (88%)
Writing library : x264 core 146 r2538 121396c
Encoding settings : cabac=1 / ref=9 / deblock=1:-2:-1 / analyse=0x3:0x133 / me=umh / subme=9 / psy=1 / psy_rd=1.00:0.15 / mixed_ref=1 / me_range=32 / chroma_me=1 / trellis=2 / 8x8dct=1 / cqm=0 / deadzone=21,11 / fast_pskip=0 / chroma_qp_offset=-3 / threads=18 / lookahead_threads=3 / sliced_threads=0 / nr=0 / decimate=1 / interlaced=0 / bluray_compat=0 / constrained_intra=0 / bframes=9 / b_pyramid=2 / b_adapt=2 / b_bias=0 / direct=3 / weightb=1 / open_gop=0 / weightp=2 / keyint=250 / keyint_min=25 / scenecut=40 / intra_refresh=0 / rc=2pass / mbtree=0 / bitrate=1646 / ratetol=1.0 / qcomp=0.60 / qpmin=0 / qpmax=69 / qpstep=4 / cplxblur=20.0 / qblur=0.5 / ip_ratio=1.40 / pb_ratio=1.30 / aq=2:1.00
Default : Yes
Forced : No
Color range : Limited
Color primaries : BT.709
Transfer characteristics : BT.709
Matrix coefficients : BT.709
Audio
ID : 2
Format : AC-3
Format/Info : Audio Coding 3
Format settings, Endianness : Big
Codec ID : A_AC3
Duration : 1 h 46 min
Bit rate mode : Constant
Bit rate : 192 kb/s
Channel(s) : 2 channels
Channel positions : Front: L R
Sampling rate : 48.0 kHz
Frame rate : 31.250 FPS (1536 SPF)
Bit depth : 16 bits
Compression mode : Lossy
Stream size : 146 MiB (10%)
Service kind : Complete Main
Default : Yes
Forced : No

Показать сообщения

Вы не можете начинать темы
Вы не можете отвечать на сообщения
Вы не можете редактировать свои сообщения
Вы не можете удалять свои сообщения
Вы не можете голосовать в опросах
Вы не можете прикреплять файлы к сообщениям
Вы не можете скачивать файлы

Текущее время: 20-Июн 23:06

Часовой пояс: UTC ± 0

Пользовательское соглашение Для правообладателей Реклама на сайте Top.Mail.Ru