Подождите, идет загрузка сайта ...
2
Ходячие мертвецы: Выжившие / The Walking Dead: The Ones Who Live- Год выпуска: 2024
Страна: США
Жанр: Ужасы, триллер, драма
Продолжительность: 00:56:32
Сезоны / серии: Сезон: 1 / Серии: 1-6 из 6
Перевод:
Профессиональный (многоголосый закадровый) | Novamedia по заказу Amedia
Профессиональный (многоголосый закадровый) | HDRezka Studio
Профессиональный (многоголосый закадровый) | LostFilm
Профессиональный (многоголосый закадровый) | TVShows
Любительский (многоголосый закадровый) | NewComers
Дублированный (неофициальный) | Condor Films Studio
Субтитры: Русские (NewComers), Английские (Full, SDH)
В ролях: Эндрю Линкольн, Данай Гурира, Терри О’Куинн, Лесли-Энн Брандт, Поллианна Макинтош, Эндрю Бэчелор, Крэйг Тейт, Мэттью Джефферс, Роберт О’Хара, Луба Мэйсон
Режиссёр: Берт, Берти, Грег Никотеро-Качество: WEB-DL 1080p
Формат: MKV
Видео кодек: AVC
Аудио кодек: AC3, E-AC3
Видео: AVC, 1920x960, 23,976 кадра/сек, 8848 Кбит/сек, 0.200 bit/pixel
Аудио 1: AC3, 48 kHz, 3/2 (L,C,R,l,r) + LFE ch, 384 Кбит/сек | Novamedia
Аудио 2: AC3, 48,0 kHz, 2 ch, 192 Кбит/сек | HDRezka Studio
Аудио 3: AC3, 48,0 kHz, 2 ch, 384 Кбит/сек | LostFilm
Аудио 4: AC3, 48 kHz, 3/2 (L,C,R,l,r) + LFE ch, 448 Кбит/сек | TVShows
Аудио 5: AC3, 48 kHz, 3/2 (L,C,R,l,r) + LFE ch, 640 Кбит/сек | NewComers
Аудио 6: AC3, 48 kHz, 3/2 (L,C,R,l,r) + LFE ch, 640 Кбит/сек | Condor Films Studio
Аудио 7: E-AC3, 48 kHz, 3/2 (L R C LFE Ls Rs) ch, 640 Кбит/сек |Original|-Описание: Мишонн узнает, что ее муж Рик Граймс, который пропал без вести, всё же жив и взят в плен бойцами Гражданской республики. Женщина вооружается катаной и отправляется на его поиски, по пути уничтожая толпы голодных зомби.
Общее
Уникальный идентификатор                 : 45038673273504109914170248791475309590 (0x21E222091888CE47CC6845F1C07B4C16)
Полное имя                               : E:\The.Walking.Dead.The.Ones.Who.Live.S01E01.1080p.WEB-DL.RGzsRutracker.mkv
Формат                                   : Matroska
Версия формата                           : Version 4
Размер файла                             : 4,81 Гбайт
Продолжительность                        : 56 м. 32 с.
Общий поток                              : 12,2 Мбит/сек
Частота кадров                           : 23,976 кадра/сек
Название фильма                          : The Walking Dead: The Ones Who Live 1x1 - Release by Wentworth_Miller
Дата кодирования                         : 2024-03-10 14:20:22 UTC
Программа кодирования                    : mkvmerge v80.0 ('Roundabout') 64-bit
Библиотека кодирования                   : libebml v1.4.4 + libmatroska v1.7.1
Видео
Идентификатор                            : 1
Формат                                   : AVC
Формат/Информация                        : Advanced Video Codec
Профиль формата                          : High@L4
Настройки формата                        : CABAC / 4 Ref Frames
Параметр CABAC формата                   : Да
Параметр RefFrames формата               : 4 кадра
Идентификатор кодека                     : V_MPEG4/ISO/AVC
Продолжительность                        : 56 м. 32 с.
Вид битрейта                             : Постоянный
Битрейт                                  : 8 848 Кбит/сек
Номинальный битрейт                      : 10 000 Кбит/сек
Ширина                                   : 1 920 пикселей
Высота                                   : 960 пикселей
Соотношение сторон                       : 2,000
Режим частоты кадров                     : Постоянный
Частота кадров                           : 23,976 (24000/1001) кадра/сек
Цветовое пространство                    : YUV
Субдискретизация насыщенности            : 4:2:0
Битовая глубина                          : 8 бит
Тип развёртки                            : Прогрессивная
Бит/(Пиксели*Кадры)                      : 0.200
Размер потока                            : 3,49 Гбайт (73%)
Заголовок                                : Years
Язык                                     : English (US)
Default                                  : Да
Forced                                   : Нет
Цветовой диапазон                        : Limited
Основные цвета                           : BT.709
Характеристики трансфера                 : BT.709
Коэффициенты матрицы                     : BT.709
Аудио #1
Идентификатор                            : 2
Формат                                   : AC-3
Формат/Информация                        : Audio Coding 3
Коммерческое название                    : Dolby Digital
Идентификатор кодека                     : A_AC3
Продолжительность                        : 56 м. 32 с.
Вид битрейта                             : Постоянный
Битрейт                                  : 384 Кбит/сек
Каналы                                   : 6 каналов
Channel layout                           : L R C LFE Ls Rs
Частота                                  : 48,0 КГц
Частота кадров                           : 31,250 кадров/сек (1536 SPF)
Метод сжатия                             : С потерями
Размер потока                            : 155 Мбайт (3%)
Заголовок                                : Novamedia
Язык                                     : Russian
Service kind                             : Complete Main
Default                                  : Да
Forced                                   : Нет
Аудио #2
Идентификатор                            : 3
Формат                                   : AC-3
Формат/Информация                        : Audio Coding 3
Коммерческое название                    : Dolby Digital
Идентификатор кодека                     : A_AC3
Продолжительность                        : 56 м. 31 с.
Вид битрейта                             : Постоянный
Битрейт                                  : 192 Кбит/сек
Каналы                                   : 2 канала
Channel layout                           : L R
Частота                                  : 48,0 КГц
Частота кадров                           : 31,250 кадров/сек (1536 SPF)
Метод сжатия                             : С потерями
Размер потока                            : 77,6 Мбайт (2%)
Заголовок                                : HDRezka Studio
Язык                                     : Russian
Service kind                             : Complete Main
Default                                  : Нет
Forced                                   : Нет
Аудио #3
Идентификатор                            : 4
Формат                                   : AC-3
Формат/Информация                        : Audio Coding 3
Коммерческое название                    : Dolby Digital
Идентификатор кодека                     : A_AC3
Продолжительность                        : 56 м. 32 с.
Вид битрейта                             : Постоянный
Битрейт                                  : 384 Кбит/сек
Каналы                                   : 2 канала
Channel layout                           : L R
Частота                                  : 48,0 КГц
Частота кадров                           : 31,250 кадров/сек (1536 SPF)
Метод сжатия                             : С потерями
Размер потока                            : 155 Мбайт (3%)
Заголовок                                : LostFilm
Язык                                     : Russian
Service kind                             : Complete Main
Default                                  : Нет
Forced                                   : Нет
Аудио #4
Идентификатор                            : 5
Формат                                   : AC-3
Формат/Информация                        : Audio Coding 3
Коммерческое название                    : Dolby Digital
Идентификатор кодека                     : A_AC3
Продолжительность                        : 56 м. 32 с.
Вид битрейта                             : Постоянный
Битрейт                                  : 448 Кбит/сек
Каналы                                   : 6 каналов
Channel layout                           : L R C LFE Ls Rs
Частота                                  : 48,0 КГц
Частота кадров                           : 31,250 кадров/сек (1536 SPF)
Метод сжатия                             : С потерями
Размер потока                            : 181 Мбайт (4%)
Заголовок                                : TVShows
Язык                                     : Russian
Service kind                             : Complete Main
Default                                  : Нет
Forced                                   : Нет
Аудио #5
Идентификатор                            : 6
Формат                                   : AC-3
Формат/Информация                        : Audio Coding 3
Коммерческое название                    : Dolby Digital
Идентификатор кодека                     : A_AC3
Продолжительность                        : 56 м. 31 с.
Вид битрейта                             : Постоянный
Битрейт                                  : 640 Кбит/сек
Каналы                                   : 6 каналов
Channel layout                           : L R C LFE Ls Rs
Частота                                  : 48,0 КГц
Частота кадров                           : 31,250 кадров/сек (1536 SPF)
Метод сжатия                             : С потерями
Размер потока                            : 259 Мбайт (5%)
Заголовок                                : NewComers
Язык                                     : Russian
Service kind                             : Complete Main
Default                                  : Нет
Forced                                   : Нет
Аудио #6
Идентификатор                            : 7
Формат                                   : AC-3
Формат/Информация                        : Audio Coding 3
Коммерческое название                    : Dolby Digital
Идентификатор кодека                     : A_AC3
Продолжительность                        : 56 м. 31 с.
Вид битрейта                             : Постоянный
Битрейт                                  : 640 Кбит/сек
Каналы                                   : 6 каналов
Channel layout                           : L R C LFE Ls Rs
Частота                                  : 48,0 КГц
Частота кадров                           : 31,250 кадров/сек (1536 SPF)
Метод сжатия                             : С потерями
Размер потока                            : 259 Мбайт (5%)
Заголовок                                : Condor Films Studio
Язык                                     : Russian
Service kind                             : Complete Main
Default                                  : Нет
Forced                                   : Нет
Аудио #7
Идентификатор                            : 8
Формат                                   : E-AC-3
Формат/Информация                        : Enhanced AC-3
Коммерческое название                    : Dolby Digital Plus
Идентификатор кодека                     : A_EAC3
Продолжительность                        : 56 м. 32 с.
Вид битрейта                             : Постоянный
Битрейт                                  : 640 Кбит/сек
Каналы                                   : 6 каналов
Channel layout                           : L R C LFE Ls Rs
Частота                                  : 48,0 КГц
Частота кадров                           : 31,250 кадров/сек (1536 SPF)
Метод сжатия                             : С потерями
Размер потока                            : 259 Мбайт (5%)
Язык                                     : English (US)
Service kind                             : Complete Main
Default                                  : Нет
Forced                                   : Нет
Текст #1
Идентификатор                            : 9
Формат                                   : UTF-8
Идентификатор кодека                     : S_TEXT/UTF8
Идентификатор кодека/Информация          : UTF-8 Plain Text
Продолжительность                        : 3 м. 30 с.
Битрейт                                  : 51 бит/сек
Частота кадров                           : 0,123 кадр/сек
Count of elements                        : 26
Размер потока                            : 1,32 Кбайт (0%)
Заголовок                                : Forced
Язык                                     : Russian
Default                                  : Нет
Forced                                   : Да
Текст #2
Идентификатор                            : 10
Формат                                   : UTF-8
Идентификатор кодека                     : S_TEXT/UTF8
Идентификатор кодека/Информация          : UTF-8 Plain Text
Продолжительность                        : 54 м. 52 с.
Битрейт                                  : 90 бит/сек
Частота кадров                           : 0,194 кадр/сек
Count of elements                        : 638
Размер потока                            : 36,2 Кбайт (0%)
Заголовок                                : NewComers
Язык                                     : Russian
Default                                  : Нет
Forced                                   : Нет
Текст #3
Идентификатор                            : 11
Формат                                   : UTF-8
Идентификатор кодека                     : S_TEXT/UTF8
Идентификатор кодека/Информация          : UTF-8 Plain Text
Продолжительность                        : 54 м. 57 с.
Битрейт                                  : 62 бит/сек
Частота кадров                           : 0,255 кадр/сек
Count of elements                        : 840
Размер потока                            : 25,0 Кбайт (0%)
Язык                                     : English (US)
Default                                  : Нет
Forced                                   : Нет
Текст #4
Идентификатор                            : 12
Формат                                   : UTF-8
Идентификатор кодека                     : S_TEXT/UTF8
Идентификатор кодека/Информация          : UTF-8 Plain Text
Продолжительность                        : 56 м. 14 с.
Битрейт                                  : 68 бит/сек
Частота кадров                           : 0,344 кадр/сек
Count of elements                        : 1160
Размер потока                            : 28,4 Кбайт (0%)
Заголовок                                : SDH
Язык                                     : English (US)
Default                                  : Нет
Forced                                   : Нет
При каждом добавлении создаётся новый торрент. Чтобы начать докачку новой серии, пользователям необходимо сделать следующее:
- остановить скачивание;
- удалить старый торрент у себя из клиента (старые серии удалять не надо);
- скачать новый торрент и запустить его у себя в клиенте вместо старого, при этом указать клиенту путь в старую папку, куда и должно происходить скачивание новых серий.

Показать сообщения

Вы не можете начинать темы
Вы не можете отвечать на сообщения
Вы не можете редактировать свои сообщения
Вы не можете удалять свои сообщения
Вы не можете голосовать в опросах
Вы не можете прикреплять файлы к сообщениям
Вы не можете скачивать файлы

Текущее время: 20-Июн 22:15

Часовой пояс: UTC ± 0

Пользовательское соглашение Для правообладателей Реклама на сайте Top.Mail.Ru