Подождите, идет загрузка сайта ...
2
Хало / Halo-«Восстать из павших»- Год выпуска: 2024
Страна: США
Жанр: Фантастика, боевик
Продолжительность: ~00:57:00 серия
Сезон: 2 сезон
Серии: 1 - 2 серия из 9
Перевод 1: Многоголосый профессиональный SDI Media по заказу Amedia
Перевод 2: Многоголосый профессиональный AlexFilm
Перевод 3: Многоголосый профессиональный Jaskier
Перевод 4: Многоголосый профессиональный Lostfilm
Субтитры: Русские, английские (SDH)
Режиссер: Отто Батхёрст, Джонатан Либесман, Роэль Рейн
В ролях: Пабло Шрайбер, Шабана Азми, Наташа Кулзач, Олив Грэй, Ерин Ха, Бентли Калу, Кейт Кеннеди, Чарли Мерфи, Дэнни Сапани, Джен Тейлор-Качество: WEB-DL 1080p
Формат: MKV
Видео кодек: AVC
Аудио кодек: AC3
Видео: AVC/H.264, 1920х872, ~4710 Kbps, 23.976 fps
Аудио 1: AC3, 6 ch, 48 kHz, 384 kbps MVO, SDI Media
Аудио 2: AC3, 6 ch, 48 kHz, 448 kbps MVO, AlexFilm
Аудио 3: AC3, 6 ch, 48 kHz, 384 kbps MVO, Jaskier
Аудио 4: AC3, 2 ch, 48 kHz, 384 kbps MVO, Lostfilm
Аудио 5: AC3, 6 ch, 48 kHz, 640 kbps английский-Описание: Во втором сезоне сериала HALO, основанном на культовой серии игр, Мастер Чиф продолжает борьбу с могущественной инопланетной расой. Помогать ему на этот раз берется обновленная Кортана – искусственный интеллект, живущий по собственным правилам, а также на поле битвы вступают грозный агент разведки Джеймс Акерсон и капрал Талиа Перес. Мастер Чиф отправляется в опасное путешествие по галактике, чтобы найти Ореол – ключ к спасению человечества или его полному исчезновению.
Общее
Уникальный идентификатор                 : 185676478744625494931287655274968406359 (0x8BAFFD319C9C8A389FC94DA3FCAE5957)
Полное имя                               : H:\Фильмы\Хало. 2 сезон. 2024 (WEB-DL 1080p)\Halo.s02e01. Святилище.mkv
Формат                                   : Matroska
Версия формата                           : Version 2
Размер файла                             : 2,85 Гбайт
Продолжительность                        : 57 м. 42 с.
Общий поток                              : 7 077 Кбит/сек
Частота кадров                           : 23,976 кадра/сек
Название фильма                          : Halo.S02E01.Sanctuary.WEB-DL 1080p.Atla22
Дата кодирования                         : 2024-02-11 09:14:47 UTC
Программа кодирования                    : mkvmerge v7.8.0 ('River Man') 32bit built on Apr  3 2015 12:11:22
Библиотека кодирования                   : libebml v1.3.1 + libmatroska v1.4.2
Обложка                                  : Yes
Attachments                              : Cover_Halo.1.jpg
Видео
Идентификатор                            : 1
Формат                                   : AVC
Формат/Информация                        : Advanced Video Codec
Профиль формата                          : High@L4
Настройки формата                        : CABAC / 4 Ref Frames
Параметр CABAC формата                   : Да
Параметр RefFrames формата               : 4 кадра
Идентификатор кодека                     : V_MPEG4/ISO/AVC
Продолжительность                        : 57 м. 42 с.
Вид битрейта                             : Постоянный
Битрейт                                  : 4 696 Кбит/сек
Номинальный битрейт                      : 10 000 Кбит/сек
Ширина                                   : 1 920 пикселей
Высота                                   : 872 пикселя
Соотношение сторон                       : 2,2:1
Режим частоты кадров                     : Постоянный
Частота кадров                           : 23,976 (24000/1001) кадра/сек
Цветовое пространство                    : YUV
Субдискретизация насыщенности            : 4:2:0
Битовая глубина                          : 8 бит
Тип развёртки                            : Прогрессивная
Бит/(Пиксели*Кадры)                      : 0.117
Размер потока                            : 1,89 Гбайт (66%)
Язык                                     : English
Default                                  : Да
Forced                                   : Нет
Цветовой диапазон                        : Limited
Основные цвета                           : BT.709
Характеристики трансфера                 : BT.709
Коэффициенты матрицы                     : BT.709
Аудио #1
Идентификатор                            : 2
Формат                                   : AC-3
Формат/Информация                        : Audio Coding 3
Коммерческое название                    : Dolby Digital
Идентификатор кодека                     : A_AC3
Продолжительность                        : 57 м. 42 с.
Вид битрейта                             : Постоянный
Битрейт                                  : 384 Кбит/сек
Каналы                                   : 6 каналов
Channel layout                           : L R C LFE Ls Rs
Частота                                  : 48,0 КГц
Частота кадров                           : 31,250 кадров/сек (1536 SPF)
Метод сжатия                             : С потерями
Размер потока                            : 159 Мбайт (5%)
Заголовок                                : SDI Media
Язык                                     : Russian
Service kind                             : Complete Main
Default                                  : Да
Forced                                   : Нет
Аудио #2
Идентификатор                            : 3
Формат                                   : AC-3
Формат/Информация                        : Audio Coding 3
Коммерческое название                    : Dolby Digital
Идентификатор кодека                     : A_AC3
Продолжительность                        : 57 м. 42 с.
Вид битрейта                             : Постоянный
Битрейт                                  : 448 Кбит/сек
Каналы                                   : 6 каналов
Channel layout                           : L R C LFE Ls Rs
Частота                                  : 48,0 КГц
Частота кадров                           : 31,250 кадров/сек (1536 SPF)
Метод сжатия                             : С потерями
Размер потока                            : 185 Мбайт (6%)
Заголовок                                : AlexFilm
Язык                                     : Russian
Service kind                             : Complete Main
Default                                  : Нет
Forced                                   : Нет
Аудио #3
Идентификатор                            : 4
Формат                                   : AC-3
Формат/Информация                        : Audio Coding 3
Коммерческое название                    : Dolby Digital
Идентификатор кодека                     : A_AC3
Продолжительность                        : 57 м. 42 с.
Вид битрейта                             : Постоянный
Битрейт                                  : 384 Кбит/сек
Каналы                                   : 6 каналов
Channel layout                           : L R C LFE Ls Rs
Частота                                  : 48,0 КГц
Частота кадров                           : 31,250 кадров/сек (1536 SPF)
Метод сжатия                             : С потерями
Размер потока                            : 159 Мбайт (5%)
Заголовок                                : Jaskier
Язык                                     : Russian
Service kind                             : Complete Main
Default                                  : Нет
Forced                                   : Нет
Аудио #4
Идентификатор                            : 5
Формат                                   : AC-3
Формат/Информация                        : Audio Coding 3
Коммерческое название                    : Dolby Digital
Идентификатор кодека                     : A_AC3
Продолжительность                        : 57 м. 42 с.
Вид битрейта                             : Постоянный
Битрейт                                  : 384 Кбит/сек
Каналы                                   : 2 канала
Channel layout                           : L R
Частота                                  : 48,0 КГц
Частота кадров                           : 31,250 кадров/сек (1536 SPF)
Метод сжатия                             : С потерями
Размер потока                            : 159 Мбайт (5%)
Заголовок                                : Lostfilm
Язык                                     : Russian
Service kind                             : Complete Main
Default                                  : Нет
Forced                                   : Нет
Аудио #5
Идентификатор                            : 6
Формат                                   : AC-3
Формат/Информация                        : Audio Coding 3
Коммерческое название                    : Dolby Digital
Идентификатор кодека                     : A_AC3
Продолжительность                        : 57 м. 42 с.
Вид битрейта                             : Постоянный
Битрейт                                  : 640 Кбит/сек
Каналы                                   : 6 каналов
Channel layout                           : L R C LFE Ls Rs
Частота                                  : 48,0 КГц
Частота кадров                           : 31,250 кадров/сек (1536 SPF)
Метод сжатия                             : С потерями
Размер потока                            : 264 Мбайт (9%)
Язык                                     : English
Service kind                             : Complete Main
Default                                  : Нет
Forced                                   : Нет
Текст #1
Идентификатор                            : 7
Формат                                   : UTF-8
Идентификатор кодека                     : S_TEXT/UTF8
Идентификатор кодека/Информация          : UTF-8 Plain Text
Язык                                     : Russian
Default                                  : Нет
Forced                                   : Нет
Текст #2
Идентификатор                            : 8
Формат                                   : UTF-8
Идентификатор кодека                     : S_TEXT/UTF8
Идентификатор кодека/Информация          : UTF-8 Plain Text
Заголовок                                : SDH
Язык                                     : English
Default                                  : Нет
Forced                                   : Нет
2-01. Святилище / Sanctuary (08.02.2024)
2-02. Меч / Sword (08.02.2024)
2-03. Вышеград / Visegrad (15.02.2024)
2-04. Достижение / Reach (22.02.2024)
2-05. Алерия / Aleria (29.02.2024)
2-06. Оникс / Onyx (07.03.2024)
2-07. Фермопилы / Thermopylae (14.03.2024)
2-08. Ореол / Halo (21.03.2024)

Показать сообщения

Вы не можете начинать темы
Вы не можете отвечать на сообщения
Вы не можете редактировать свои сообщения
Вы не можете удалять свои сообщения
Вы не можете голосовать в опросах
Вы не можете прикреплять файлы к сообщениям
Вы не можете скачивать файлы

Текущее время: 12-Июн 17:45

Часовой пояс: UTC ± 0

Пользовательское соглашение Для правообладателей Реклама на сайте Top.Mail.Ru